Torrent’s details
Name

Vacances organisées pour filles en chaleur

Torrent
Info Hash 06a3d3ff717845f6fed9ae10613081f0ac4b0667
Share with friends
Share |
Image Vacances organisées pour filles en chaleur
Screenshots
Embed code
embed code for Vacances organisées pour filles en chaleur
Description

general
Complete name: C:  organisées Vacances pour filles en chaleur.mp4
Format: MPEG-4
Format profile: Base Media / Version 2
Codec ID: mp42
File Size: 992 MiB
Duration: 1 hour
Overall bit rate mode: Variable
Overall bit rate: 2 239 Kbps
Encoded date: UTC 2012-02-03 22:12:02
Tagged date: UTC 2012-02-03 22:12:02

picture
ID: 1
Format: AVC
Format / Info: Advanced Video Codec
Format profile: Main@L3.1
Format settings, CABAC: Yes
Format settings, ReFrames: 5 frames
Codec ID: avc1
Codec ID / Info: Advanced Video Coding
Duration: 1 hour
Bit rate mode: Variable
Bit rate: 2 048 Kbps
Width: 768 pixels
Height: 576 pixels
Aspect Ratio: 4:3
Frame rate mode: Constant
Frame rate: 25.000 fps
Standard: Component
Color space: YUV
Chroma: 4:2:0
Resolution / String: 8 bits
Scan type: Progressive
Bits / (Pixel * Frame): 0.185
Stream size: 907 MiB (91%)
Language: English
Encoded date: UTC 2012-02-03 22:12:02
Tagged date: UTC 2012-02-03 22:12:02

sound
ID: 2
Format: AAC
Format / Info: Advanced Audio Codec
Format profile: LC
Codec ID: 40
Duration: 1 hour
Bit rate mode: Variable
Bit rate: 192 Kbps
Maximum Overall bit rate: 285 Kbps
Number of channels: 2 channels
Channel positions: Front: LR
Sampling rate: 44.1 KHz
Stream size: 83.9 MiB (8%)
Language: English
Encoded date: UTC 2012-02-03 22:12:02
Tagged date: UTC 2012-02-03 22:12:02
 







 

Desciption of Vacances organisées pour filles en chaleur
Category XXX movies
Genre       Feature       Foreign      
Rating
Size 992.05 MB
Show/Hide Files
1 file
AddDate 06/04/2013
Uploader xjock4ever23
Speed 0 KB/sec
Down 4 times
peers seeds: 8, leechers: 2 = 10 peers
Who thanks


No comments...