Torrent’s details
Name

My.Evil.Sluts.3.XXX.DVDRip.XviD-SWE6RUS

Torrent
Info Hash 0a4491f440068ab4b290b9425d6b23fb1194aa93
Share with friends
Share |
Image My.Evil.Sluts.3.XXX.DVDRip.XviD-SWE6RUS
Screenshots
Embed code
embed code for My.Evil.Sluts.3.XXX.DVDRip.XviD-SWE6RUS
Description Video
Format                           : MPEG-4 Visual
Format profile                   : Streaming Video@L1
Format settings, BVOP            : Yes
Format settings, QPel            : No
Format settings, GMC             : No warppoints
Format settings, Matrix          : Default
Muxing mode                      : Packed bitstream
Codec ID                         : XVID
Codec ID/Hint                    : XviD
Bit rate                         : 958 Kbps
Width                            : 576 pixels
Height                           : 320 pixels
Display aspect ratio             : 16/9
Frame rate                       : 29.970 fps
Resolution                       : 24 bits
Colorimetry                      : 4:2:0
Scan type                        : Progressive
Bits/(Pixel*Frame)               : 0.173
Stream size                      : 585 MiB (84%)
Writing library                  : XviD 1.0.3 (UTC 2004-12-20)

Audio
Format                           : MPEG Audio
Format version                   : Version 1
Format profile                   : Layer 3
Codec ID                         : 55
Codec ID/Hint                    : MP3
Duration                         : 1h 25mn
Bit rate mode                    : Variable
Bit rate                         : 175 Kbps
Nominal bit rate                 : 172 Kbps
Channel(s)                       : 2 channels
Sampling rate                    : 48.0 KHz
Resolution                       : 16 bits
Stream size                      : 107 MiB (15%)
Alignment                        : Aligned on interleaves
Interleave, duration             : 24 ms (0.72 video frame)
Interleave, preload duration     : 105 ms
Writing library                  : LAME3.90.
Encoding settings                : ABR

http://www.cduniverse.com/productinfo.asp?pid=7803944&style=ice
           

Desciption of My.Evil.Sluts.3.XXX.DVDRip.XviD-SWE6RUS
Category XXX movies
Genre       Lesbian      
Rating N/A
Size 1.36 GB
Show/Hide Files
3 files
AddDate 19/11/2012
Uploader xjock4ever23
Speed 0 KB/sec
Down 1 times
peers seeds: 7, leechers: 1 = 8 peers
Who thanks


No comments...