Torrent’s details
Name

Big Tits At Work - Jessica Bangkok - Office Christmas Party

Torrent
Info Hash 0e9960f7bb5d874cc63cf4b4f5bf976d14fd5280
Share with friends
Share |
Image Big Tits At Work - Jessica Bangkok - Office Christmas Party
Screenshots
Big Tits At Work - Jessica Bangkok - Office Christmas Party Image1
Embed code
embed code for Big Tits At Work - Jessica Bangkok - Office Christmas Party
Description tongue.gif



General
Complete name : D:Torrentbtaw_jessica_bangkok_480p_1000.mp4
Format : MPEG-4
Format profile : Base Media
Codec ID : isom
File size : 231 MiB
Duration : 27mn 13s
Overall bit rate : 1 186 Kbps
Writing application : Lavf54.37.100

Video
ID : 1
Format : AVC
Format/Info : Advanced Video Codec
Format profile : High@L3.1
Format settings, CABAC : Yes
Format settings, ReFrames : 5 frames
Codec ID : avc1
Codec ID/Info : Advanced Video Coding
Duration : 27mn 13s
Bit rate : 1 000 Kbps
Width : 854 pixels
Height : 480 pixels
Display aspect ratio : 16:9
Frame rate mode : Constant
Frame rate : 29.970 fps
Color space : YUV
Chroma subsampling : 4:2:0
Bit depth : 8 bits
Scan type : Progressive
Bits/(Pixel*Frame) : 0.081
Stream size : 194 MiB (84%)
Writing library : x264 core 128 r2216 198a7ea
aq=1:1.00
Tagged date : UTC 2012-12-14 12:29:03
Audio
ID : 2
Format : AAC
Format/Info : Advanced Audio Codec
Format profile : LC
Codec ID : 40
Duration : 27mn 13s
Duration_LastFrame : 12ms
Bit rate mode : Constant
Bit rate : 128 Kbps
Channel(s) : 2 channels
Channel positions : Front: L R
Sampling rate : 48.0 KHz
Compression mode : Lossy
Stream size : 24.9 MiB (11%)
Tagged date : UTC 2012-12-14 12:29:03
Desciption of Big Tits At Work - Jessica Bangkok - Office Christmas Party
Category XXX clips
Genre       Gonzo       Hardcore      
Rating N/A
Size 231.07 MB
Show/Hide Files
1 file
AddDate 20/12/2012
Uploader xjock4ever23
Speed 0 KB/sec
Down 1 times
peers seeds: 5, leechers: 1 = 6 peers
Who thanks


No comments...