Torrent’s details
Name

BigTitsInSports - Eva Karera

Torrent
Info Hash 16580aa5d54ed86ecdd6cb0cbf264f564a5ff307
Share with friends
Share |
Screenshots
Embed code
embed code for BigTitsInSports - Eva Karera
Description



General
Complete name                            : C:UsersclaudiuDownloads12.07.07.Eva Karera_BigTitsInSports.mp4
Format                                   : MPEG-4
Format profile                           : Base Media
Codec ID                                 : isom
File size                                : 280 MiB
Duration                                 : 32mn 52s
Overall bit rate                         : 1 191 Kbps
Writing application                      : Lavf54.3.100

Video
ID                                       : 1
Format                                   : AVC
Format/Info                              : Advanced Video Codec
Format profile                           : High@L3.1
Format settings, CABAC                   : Yes
Format settings, ReFrames                : 5 frames
Codec ID                                 : avc1
Codec ID/Info                            : Advanced Video Coding
Duration                                 : 32mn 52s
Bit rate                                 : 1 000 Kbps
Width                                    : 854 pixels
Height                                   : 480 pixels
Display aspect ratio                     : 16:9
Frame rate mode                          : Constant
Frame rate                               : 29.970 fps
Color space                              : YUV
Chroma subsampling                       : 4:2:0
Bit depth                                : 8 bits
Scan type                                : Progressive
Bits/(Pixel*Frame)                       : 0.081
Stream size                              : 235 MiB (84%)
Writing library                          : x264 core 120 r2164 da19765
Encoding settings                        : cabac=1 / ref=5 / deblock=1:0:0 / analyse=0x3:0x113 / me=umh / subme=8 / psy=1 / psy_rd=1.00:0.00 / mixed_ref=1 / me_range=16 / chroma_me=1 / trellis=1 / 8x8dct=1 / cqm=0 / deadzone=21,11 / fast_pskip=1 / chroma_qp_offset=-2 / threads=36 / sliced_threads=0 / nr=0 / decimate=1 / interlaced=0 / bluray_compat=0 / constrained_intra=0 / bframes=3 / b_pyramid=2 / b_adapt=2 / b_bias=0 / direct=3 / weightb=1 / open_gop=0 / weightp=2 / keyint=60 / keyint_min=6 / scenecut=40 / intra_refresh=0 / rc_lookahead=50 / rc=abr / mbtree=1 / bitrate=1000 / ratetol=1.0 / qcomp=0.60 / qpmin=0 / qpmax=69 / qpstep=4 / ip_ratio=1.40 / aq=1:1.00
Tagged date                              : UTC 2012-06-24 00:59:30

Audio
ID                                       : 2
Format                                   : AAC
Format/Info                              : Advanced Audio Codec
Format profile                           : LC
Codec ID                                 : 40
Duration                                 : 32mn 52s
Bit rate mode                            : Constant
Bit rate                                 : 128 Kbps
Channel(s)                               : 2 channels
Channel positions                        : Front: L R
Sampling rate                            : 48.0 KHz
Compression mode                         : Lossy
Stream size                              : 30.1 MiB (11%)
Tagged date                              : UTC 2012-06-24 00:59:30

SCREENER BIG TITS HERE :


http://adf.ly/AWxBn

http://8f74ecb2.galleries.bz
Desciption of BigTitsInSports - Eva Karera
Category XXX movies - DVD
Genre       Big Tits       Softcore       Teen      
Rating N/A
Size 280.15 MB
Show/Hide Files
1 file
AddDate 09/07/2012
Uploader kameluss
Speed 0 KB/sec
Down 7 times
peers seeds: 0, leechers: 0 = 0 peers
Who thanks


No comments...