Torrent’s details
Name

Anal.Teen.Tryouts.15.XXX.DVDRip.XviD

Torrent
Info Hash 19ffd205d4e96b1b724364b6d31d787f1dacba59
Share with friends
Share |
Image Anal.Teen.Tryouts.15.XXX.DVDRip.XviD
Screenshots
Embed code
embed code for Anal.Teen.Tryouts.15.XXX.DVDRip.XviD
Description


Video
Format                         : MPEG-4 Visual
Format profile                 : Streaming Video@L1
Format settings, BVOP            : Yes
Format settings, QPel            : No
Format settings, GMC           : No warppoints
Format settings, Matrix          : Default
Codec ID                       : XVID
Codec ID/Hint                    : XviD
Duration                       : 1h 9mn
Bit rate                       : 1 258 Kbps
Width                            : 512 pixels
Height                         : 288 pixels
Display aspect ratio           : 16/9
Frame rate                     : 29.970 fps
Resolution                     : 24 bits
Colorimetry                      : 4:2:0
Scan type                        : Progressive
Bits/(Pixel*Frame)             : 0.285
Stream size                      : 630 MiB (90%)
Writing library                  : XviD 1.1.2 (UTC 2006-11-01)

Audio
Format                         : MPEG Audio
Format version                 : Version 1
Format profile                 : Layer 3
Codec ID                       : 55
Codec ID/Hint                    : MP3
Duration                       : 1h 9mn
Bit rate mode                    : Variable
Bit rate                       : 125 Kbps
Channel(s)                     : 2 channels
Sampling rate                    : 48.0 KHz
Resolution                     : 16 bits
Stream size                      : 62.6 MiB (9%)
Alignment                        : Aligned on interleaves
Interleave, duration           : 24 ms (0.72 video frame)
Interleave, preload duration   : 470 ms

www.cduniverse.com/productinfo.asp?pid=7469714&style=ice



Desciption of Anal.Teen.Tryouts.15.XXX.DVDRip.XviD
Category XXX movies
Genre       Teen      
Rating N/A
Size 1.37 GB
Show/Hide Files
4 files
AddDate 10/04/2013
Uploader xjock4ever23
Speed 0 KB/sec
Down 5 times
peers seeds: 2, leechers: 3 = 5 peers
Who thanks


No comments...