Torrent’s details
Name

Fucked Hard 18 - Shaye Bennet

Torrent
Info Hash 1a2c9a67139c6244d8ec1fd86de348cc9cc9e5b1
Share with friends
Share |
Image  Fucked Hard 18 - Shaye Bennet
Screenshots
Embed code
embed code for Fucked Hard 18 - Shaye Bennet
Description


General
Complete name : D:TorrentFuckedHard18 - Shaye.wmv
Format : Windows Media
File size : 378 MiB
Duration : 33mn 36s
Overall bit rate mode : Constant
Overall bit rate : 1 574 Kbps
Maximum Overall bit rate : 1 589 Kbps
Encoded date : UTC 2011-01-13 03:45:36.396
SfOriginalFPS : 300000

Video
ID : 2
Format : VC-1
Format profile : MP@HL
Codec ID : WMV3
Codec ID/Info : Windows Media Video 9
Codec ID/Hint : WMV3
Description of the codec : Windows Media Video 9 - Professional
Duration : 33mn 36s
Bit rate mode : Constant
Bit rate : 1 477 Kbps
Width : 1 000 pixels
Height : 564 pixels
Display aspect ratio : 16:9
Frame rate : 30.000 fps
Bit depth : 8 bits
Scan type : Progressive
Compression mode : Lossy
Bits/(Pixel*Frame) : 0.087
Stream size : 355 MiB (94%)
Language : English (US)

Audio
ID : 1
Format : WMA
Format version : Version 2
Codec ID : 161
Codec ID/Info : Windows Media Audio
Description of the codec : Windows Media Audio 9.2 - 96 kbps, 44 kHz, stereo (A/V) 1-pass CBR
Duration : 33mn 36s
Bit rate mode : Constant
Bit rate : 96.0 Kbps
Channel(s) : 2 channels
Sampling rate : 44.1 KHz
Bit depth : 16 bits
Stream size : 23.1 MiB (6%)
Language : English (US)



Desciption of Fucked Hard 18 - Shaye Bennet
Category XXX clips
Genre       Teen      
Rating N/A
Size 378.34 MB
Show/Hide Files
1 file
AddDate 07/04/2013
Uploader xjock4ever23
Speed 0 KB/sec
Down 4 times
peers seeds: 8, leechers: 4 = 12 peers
Who thanks


No comments...