Torrent’s details
Name

X-Art - Gianna - Apartment Number Four

Torrent
Info Hash 1b24f934ae45dd58cc8a047d2fee4b4f3b2c2a27
Share with friends
Share |
Image X-Art - Gianna - Apartment Number Four
Screenshots
Embed code
embed code for X-Art - Gianna - Apartment Number Four
Description


General
Complete name : D:Torrentx-art_gianna_apartment4_540.mov
Format : MPEG-4
Format profile : QuickTime
Codec ID : qt
File size : 308 MiB
Duration : 16mn 23s
Overall bit rate mode : Variable
Overall bit rate : 2 631 Kbps
Writing application : Lavf54.22.100

Video
ID : 1
Format : MPEG-4 Visual
Format profile : Simple@L1
Format settings, BVOP : No
Format settings, QPel : No
Format settings, GMC : No warppoints
Format settings, Matrix : Default (H.263)
Codec ID : 20
Duration : 16mn 23s
Bit rate mode : Variable
Bit rate : 2 523 Kbps
Maximum bit rate : 3 000 Kbps
Width : 960 pixels
Height : 540 pixels
Display aspect ratio : 16:9
Frame rate mode : Constant
Frame rate : 25.000 fps
Color space : YUV
Chroma subsampling : 4:2:0
Bit depth : 8 bits
Scan type : Progressive
Compression mode : Lossy
Bits/(Pixel*Frame) : 0.195
Stream size : 296 MiB (96%)
Writing library : Lavc54.46.100
Language : English

Audio
ID : 2
Format : AAC
Format/Info : Advanced Audio Codec
Format profile : LC
Codec ID : 40
Duration : 16mn 23s
Duration_LastFrame : -1ms
Bit rate mode : Variable
Bit rate : 103 Kbps
Maximum bit rate : 128 Kbps
Channel(s) : 2 channels
Channel positions : Front: L R
Sampling rate : 48.0 KHz
Compression mode : Lossy
Stream size : 12.1 MiB (4%)
Language : English

Menu
ID : 3
Duration : 16mn 23s
Language : English






Desciption of X-Art - Gianna - Apartment Number Four
Category XXX clips
Genre       Hardcore      
Rating N/A
Size 308.43 MB
Show/Hide Files
1 file
AddDate 07/04/2013
Uploader xjock4ever23
Speed 0 KB/sec
Down 2 times
peers seeds: 1, leechers: 2 = 3 peers
Who thanks


No comments...