Torrent’s details
Name

Ca Baise Au Sauna

Torrent
Info Hash 2098d18895dfc419724bcd9b220b042da9acafe1
Share with friends
Share |
Image Ca Baise Au Sauna
Screenshots
Ca Baise Au Sauna Image1 Ca Baise Au Sauna Image2 Ca Baise Au Sauna Image3 Ca Baise Au Sauna Image4
Ca Baise Au Sauna Image5 Ca Baise Au Sauna Image6 Ca Baise Au Sauna Image7 Ca Baise Au Sauna Image8
Embed code
embed code for Ca Baise Au Sauna
Description Год производства: 2012 г.
Страна: FR
Жанр: anal,oral,DP
Продолжительность: 102 min
Язык: Французский
Режиссер: Luka
Студия: Marc Dorcel
В ролях: Daphnée Lecerf , Sabrina Sweet , Anksa Kara et Tamara Val

Доп. информация: http://www.xstarsnews.com/ca-baise-au-sauna-11643.html

Format : AVI
Format/Info : Audio Video Interleave
File size : 1.35 gb
Duration : 102 min
Overall bit rate : 1 890 Kbps
Writing application : VirtualDubMod 1.5.10.2 (build 2540/release)
Writing library : VirtualDubMod build 2540/release

Video
ID : 0
Format : MPEG-4 Visual
Format profile : Advanced Simple@L5
Format settings, BVOP : 2
Format settings, QPel : No
Format settings, GMC : No warppoints
Format settings, Matrix : Default (H.263)
Muxing mode : Packed bitstream
Codec ID : XVID
Codec ID/Hint : XviD
Duration : 51mn 38s
Bit rate : 1 745 Kbps
Width : 640 pixels
Height : 352 pixels
Display aspect ratio : 16:9
Frame rate : 29.970 fps
Color space : YUV
Chroma subsampling : 4:2:0
Bit depth : 8 bits
Scan type : Progressive
Compression mode : Lossy
Bits/(Pixel*Frame) : 0.258
Stream size : 645 MiB (92%)
Writing library : XviD 1.2.1 (UTC 2008-12-04)

Audio
ID : 1
Format : MPEG Audio
Format version : Version 1
Format profile : Layer 3
Mode : Joint stereo
Mode extension : MS Stereo
Codec ID : 55
Codec ID/Hint : MP3
Duration : 51mn 38s
Bit rate mode : Variable
Bit rate : 128 Kbps
Channel(s) : 2 channels
Sampling rate : 48.0 KHz
Compression mode : Lossy
Stream size : 48.3 MiB (7%)
Alignment : Aligned on interleaves
Interleave, duration : 24 ms (0.72 video frame)
Interleave, preload duration : 140 ms
Writing library : LAME3.90.
Encoding settings : -m j -V 4 -q 2 -lowpass 17.6 --abr 128
Desciption of Ca Baise Au Sauna
Category XXX movies
Genre       Anal       DP       Hardcore      
Rating N/A
Size 1.37 GB
Show/Hide Files
3 files
AddDate 21/07/2012
Uploader armagedon
Speed 0 KB/sec
Down 5 times
peers seeds: 1, leechers: 1 = 2 peers
Who thanks


No comments...