Torrent’s details
Name

My College Porno 2 XXX DVDRip XviD-NYMPHO

Torrent
Info Hash 23bd01059acd158a6a067eac9c9165ed755c8ae5
Share with friends
Share |
Image My College Porno 2 XXX DVDRip XviD-NYMPHO
Screenshots
Embed code
embed code for My College Porno 2 XXX DVDRip XviD-NYMPHO
Description Video
Format                           : MPEG-4 Visual
Format profile                   : Streaming Video@L1
Format settings, BVOP            : Yes
Format settings, QPel            : No
Format settings, GMC             : No warppoints
Format settings, Matrix          : Default
Codec ID                         : XVID
Codec ID/Hint                    : XviD
Duration                         : 1h 9mn
Bit rate                         : 1 258 Kbps
Width                            : 512 pixels
Height                           : 288 pixels
Display aspect ratio             : 16/9
Frame rate                       : 29.970 fps
Resolution                       : 24 bits
Colorimetry                      : 4:2:0
Scan type                        : Progressive
Bits/(Pixel*Frame)               : 0.285
Stream size                      : 630 MiB (90%)
Writing library                  : XviD 1.1.2 (UTC 2006-11-01)

Audio
Format                           : MPEG Audio
Format version                   : Version 1
Format profile                   : Layer 3
Codec ID                         : 55
Codec ID/Hint                    : MP3
Duration                         : 1h 9mn
Bit rate mode                    : Variable
Bit rate                         : 125 Kbps
Channel(s)                       : 2 channels
Sampling rate                    : 48.0 KHz
Resolution                       : 16 bits
Stream size                      : 62.6 MiB (9%)
Alignment                        : Aligned on interleaves
Interleave, duration             : 24 ms (0.72 video frame)
Interleave, preload duration     : 470 ms

http://www.cduniverse.com/productinfo.asp?pid=7861810&style=ice
               

Desciption of My College Porno 2 XXX DVDRip XviD-NYMPHO
Category XXX movies
Genre       Amateur      
Rating N/A
Size 1.36 GB
Show/Hide Files
5 files
AddDate 19/11/2012
Uploader xjock4ever23
Speed 0 KB/sec
Down 12 times
peers seeds: 6, leechers: 3 = 9 peers
Who thanks


No comments...