Torrent’s details
Name

[czechmegaswingers.com / czechav.com] CZECH MEGA SWINGERS 10 - PART 1,2,3,4,5,6

Torrent
Info Hash 25a0023f13697eeb9af19f99586b19f28c4c4e01
Share with friends
Share |
Image 	[czechmegaswingers.com / czechav.com] CZECH MEGA SWINGERS 10 - PART 1,2,3,4,5,6
Screenshots
	[czechmegaswingers.com / czechav.com] CZECH MEGA SWINGERS 10 - PART 1,2,3,4,5,6 Image1 	[czechmegaswingers.com / czechav.com] CZECH MEGA SWINGERS 10 - PART 1,2,3,4,5,6 Image2 	[czechmegaswingers.com / czechav.com] CZECH MEGA SWINGERS 10 - PART 1,2,3,4,5,6 Image3 	[czechmegaswingers.com / czechav.com] CZECH MEGA SWINGERS 10 - PART 1,2,3,4,5,6 Image4
	[czechmegaswingers.com / czechav.com] CZECH MEGA SWINGERS 10 - PART 1,2,3,4,5,6 Image5 	[czechmegaswingers.com / czechav.com] CZECH MEGA SWINGERS 10 - PART 1,2,3,4,5,6 Image6
Embed code
embed code for [czechmegaswingers.com / czechav.com] CZECH MEGA SWINGERS 10 - PART 1,2,3,4,5,6
Description Подсайт и сайт: czechmegaswingers.com / czechav.com
Год производства: 2011 г.
Жанр: All Sex, Amateur, Blowjob, Facial, Orgy, POV
Количество роликов: 6

Описание: Another unbelievable episode of Czech Megaswingers is here! Crammed with real life amateurs of all age groups, unleashed on each other without any script or direction. Watch one of the best and most authentic amateur fuckfests ever, as eyepoppingly beautiful Czech girls and experienced mature women do things you won't believe. Enjoy this fantastic video, the one and only Czech Megaswingers - true amateur reality, live and pure.

Формат видео: WMV
Видео кодек: Windows Media
Аудио кодек: WMA
Полное имя : D:CZECH MEGA SWINGERS 10CZECH MEGA SWINGERS 10 PART 1.wmv
Формат : Windows Media
Размер файла : 762 Мбайт
Продолжительность : 33 м.
Режим общего битрейта : Постоянный
Общий поток : 3144 Кбит/сек
Максимальный общий битрейт : 3163 Кбит/сек
Дата кодирования : UTC 2011-08-14 09:58:19.101

Видео
Идентификатор : 2
Формат : VC-1
Профиль формата : MP@HL
Идентификатор кодека : WMV3
Идентификатор кодека/Информация : Windows Media Video 9
Идентификатор кодека/Подсказка : WMV3
Описание кодека : Windows Media Video 9 - Professional
Продолжительность : 33 м.
Вид битрейта : Постоянный
Битрейт : 3072 Кбит/сек
Ширина : 1280 пикселей
Высота : 720 пикселей
Соотношение сторон : 16:9
Частота кадров : 25,000 кадров/сек
Битовая глубина : 8 бит
Тип развёртки : Прогрессивная
Метод сжатия : С потерями
Бит/(Пиксели*Кадры) : 0.133
Размер потока : 745 Мбайт (98%)
Язык : Czech

Аудио
Идентификатор : 1
Формат : WMA
Версия формата : Version 2
Идентификатор кодека : 161
Идентификатор кодека/Информация : Windows Media Audio
Описание кодека : Windows Media Audio 9.2 - 64 kbps, 44 kHz, stereo (A/V) 1-pass CBR
Продолжительность : 33 м.
Вид битрейта : Постоянный
Битрейт : 64,0 Кбит/сек
Каналы : 2 канала
Частота : 44,1 КГц
Битовая глубина : 16 бит
Размер потока : 15,5 Мбайт (2%)
Язык : Czech
Desciption of [czechmegaswingers.com / czechav.com] CZECH MEGA SWINGERS 10 - PART 1,2,3,4,5,6
Category XXX movies - HD
Genre       Amateur       Orgy (Group)      
Rating N/A
Size 4.87 GB
Show/Hide Files
6 files
AddDate 01/06/2012
Uploader armagedon
Speed 0 KB/sec
Down 1 times
peers seeds: 7, leechers: 3 = 10 peers
Who thanks


No comments...