Torrent’s details
Name

Massive Wet Asses 6 XviD-PORNOLATiON

Torrent
Info Hash 2e9ab2a3b3fcbb171b1888ffec37b43bd0c2508b
Share with friends
Share |
Image Massive Wet Asses 6 XviD-PORNOLATiON
Screenshots
Embed code
embed code for Massive Wet Asses 6 XviD-PORNOLATiON
Description Video
Format                           : MPEG-4 Visual
Format profile                   : Streaming Video@L1
Format settings, BVOP            : Yes
Format settings, QPel            : No
Format settings, GMC             : No warppoints
Format settings, Matrix          : Default
Muxing mode                      : Packed bitstream
Codec ID                         : XVID
Codec ID/Hint                    : XviD
Duration                         : 1h 2mn
Bit rate                         : 1 424 Kbps
Width                            : 512 pixels
Height                           : 288 pixels
Display aspect ratio             : 16/9
Frame rate                       : 29.970 fps
Resolution                       : 24 bits
Colorimetry                      : 4:2:0
Scan type                        : Progressive
Bits/(Pixel*Frame)               : 0.322
Stream size                      : 641 MiB (92%)
Writing library                  : XviD 1.0.2 (UTC 2004-08-29)

Audio
Format                           : MPEG Audio
Format version                   : Version 1
Format profile                   : Layer 3
Codec ID                         : 55
Codec ID/Hint                    : MP3
Duration                         : 1h 2mn
Bit rate mode                    : Variable
Bit rate                         : 110 Kbps
Nominal bit rate                 : 128 Kbps
Channel(s)                       : 2 channels
Sampling rate                    : 48.0 KHz
Resolution                       : 16 bits
Stream size                      : 49.5 MiB (7%)
Alignment                        : Aligned on interleaves
Interleave, duration             : 24 ms (0.72 video frame)
Interleave, preload duration     : 468 ms
Writing library                  : LAME3.90.
Encoding settings                : ABR

http://www.cduniverse.com/productinfo.asp?pid=7822323&style=ice

Desciption of Massive Wet Asses 6 XviD-PORNOLATiON
Category XXX movies
Genre       Anal      
Rating N/A
Size 697.13 MB
Show/Hide Files
1 file
AddDate 12/11/2012
Uploader xjock4ever23
Speed 0 KB/sec
Down 2 times
peers seeds: 3, leechers: 4 = 7 peers
Who thanks


No comments...