Torrent’s details
Name

Fully Clothed Sex 5

Torrent
Info Hash 3cb4a7367bcf8c8b8ef2045b47f51c9824bc78da
Share with friends
Share |
Image Fully Clothed Sex 5
Screenshots
Embed code
embed code for Fully Clothed Sex 5
Description

General
Complete name                            : Dgrin.gifocuments and Settingsxjock4everMy DocumentsNCOREfcs2008-06-19hd.avi
Format                                   : AVI
Format/Info                              : Audio Video Interleave
File size                                : 178 MiB
Duration                                 : 21mn 29s
Overall bit rate mode                    : Variable
Overall bit rate                         : 1 159 Kbps
Writing application                      : MEncoder Sherpya-SVN-r32492-4.2.5
Writing library                          : MPlayer

Video
ID                                       : 0
Format                                   : MPEG-4 Visual
Format profile                           : Simple@L3
Format settings, BVOP                    : No
Format settings, QPel                    : No
Format settings, GMC                     : No warppoints
Format settings, Matrix                  : Default (H.263)
Codec ID                                 : XVID
Codec ID/Hint                            : XviD
Duration                                 : 21mn 29s
Bit rate                                 : 1 024 Kbps
Width                                    : 720 pixels
Height                                   : 400 pixels
Display aspect ratio                     : 16:9
Original display aspect ratio            : 16:9
Frame rate                               : 25.000 fps
Color space                              : YUV
Chroma subsampling                       : 4:2:0
Bit depth                                : 8 bits
Scan type                                : Progressive
Compression mode                         : Lossy
Bits/(Pixel*Frame)                       : 0.142
Stream size                              : 157 MiB (88%)
Writing library                          : XviD 1.2.1 (UTC 2008-12-04)

Audio
ID                                       : 1
Format                                   : MPEG Audio
Format version                           : Version 1
Format profile                           : Layer 3
Mode                                     : Joint stereo
Mode extension                           : MS Stereo
Codec ID                                 : 55
Codec ID/Hint                            : MP3
Duration                                 : 21mn 29s
Bit rate mode                            : Variable
Bit rate                                 : 122 Kbps
Channel(s)                               : 2 channels
Sampling rate                            : 44.1 KHz
Compression mode                         : Lossy
Stream size                              : 18.8 MiB (11%)
Alignment                                : Aligned on interleaves
Interleave, duration                     : 26 ms (0.65 video frame)
Interleave, preload duration             : 594 ms

Desciption of Fully Clothed Sex 5
Category XXX clips
Genre       Hardcore      
Rating N/A
Size 178.17 MB
Show/Hide Files
1 file
AddDate 15/10/2012
Uploader
Speed 0 KB/sec
Down 2 times
peers seeds: 7, leechers: 2 = 9 peers
Who thanks


No comments...