Torrent’s details
Name

Pix and Video - Alice Romain - Medical Care

Torrent
Info Hash 43bb88c33ec75f58965256d8b91ff9772be7d7a7
Share with friends
Share |
Image Pix and Video - Alice Romain - Medical Care
Screenshots
Embed code
embed code for Pix and Video - Alice Romain - Medical Care
Description

AliceRomain_MedicalCare_PixandVideoDotCom_21Sextury.mp4
Format : MPEG-4
Format profile : Base Media / Version 2
Codec ID : mp42
File size : 309 MiB
Duration : 24mn 59s
Overall bit rate : 1 730 Kbps
Encoded date : UTC 2013-03-29 08:58:30
Tagged date : UTC 2013-03-29 08:58:30
Video #1
ID : 1
Format : AVC
Format/Info : Advanced Video Codec
Format profile : High@L3.0
Format settings, CABAC : Yes
Format settings, ReFrames : 4 frames
Codec ID : avc1
Codec ID/Info : Advanced Video Coding
Duration : 24mn 59s
Bit rate mode : Variable
Bit rate : 1 600 Kbps
Width : 640 pixels
Height : 360 pixels
Display aspect ratio : 16:9
Frame rate mode : Constant
Frame rate : 25.000 fps
Resolution : 24 bits
Colorimetry : 4:2:0
Scan type : Progressive
Bits/(Pixel*Frame) : 0.278
Stream size : 286 MiB (92%)
Language : English
Encoded date : UTC 2013-03-29 08:58:30
Tagged date : UTC 2013-03-29 08:58:30
Audio #2
ID : 2
Format : AAC
Format/Info : Advanced Audio Codec
Format version : Version 4
Format profile : LC
Format settings, SBR : No
Codec ID : 40
Duration : 24mn 59s
Bit rate mode : Variable
Bit rate : 125 Kbps
Maximum bit rate : 169 Kbps
Channel(s) : 2 channels
Channel positions : L R
Sampling rate : 48.0 KHz
Resolution : 16 bits
Stream size : 22.4 MiB (7%)
Language : English
Encoded date : UTC 2013-03-29 08:58:30
Tagged date : UTC 2013-03-29 08:58:30







Desciption of Pix and Video - Alice Romain - Medical Care
Category XXX clips
Genre       Anal       Hardcore      
Rating
Size 309.18 MB
Show/Hide Files
1 file
AddDate 04/04/2013
Uploader xjock4ever23
Speed 0 KB/sec
Down 11 times
peers seeds: 7, leechers: 1 = 8 peers
Who thanks


No comments...