Torrent’s details
Name

[x - art] Mary (Pure Passion) Jun 04

Torrent
Info Hash 442b796a60d1863d9d4ee87afe3641a1dac2b9b9
Share with friends
Share |
Image [x - art] Mary (Pure Passion) Jun 04
Screenshots
[x - art] Mary (Pure Passion) Jun 04 Image1 [x - art] Mary (Pure Passion) Jun 04 Image2 [x - art] Mary (Pure Passion) Jun 04 Image3 [x - art] Mary (Pure Passion) Jun 04 Image4
[x - art] Mary (Pure Passion) Jun 04 Image5 [x - art] Mary (Pure Passion) Jun 04 Image6 [x - art] Mary (Pure Passion) Jun 04 Image7
Embed code
embed code for [x - art] Mary (Pure Passion) Jun 04
Description Имя актрисы: Mary
Название ролика: Pure Passion
Подсайт и сайт: x - art

Год производства: 2011 г.
Жанр: teen,Big tits,Creampie
Продолжительность: 15mn 39s

Format : MPEG-4
Format profile : QuickTime
Codec ID : qt
File size : 573 MiB
Duration : 15mn 39s
Overall bit rate : 5 116 Kbps
Encoded date : UTC 2011-06-05 10:30:19
Tagged date : UTC 2011-06-05 10:30:19

Video
ID : 2
Format : AVC
Format/Info : Advanced Video Codec
Format profile : Baseline@L3.0
Format settings, CABAC : No
Format settings, ReFrames : 1 frame
Format settings, GOP : M=1, N=25
Muxing mode : Container profile=Baseline@1.3
Codec ID : avc1
Codec ID/Info : Advanced Video Coding
Duration : 15mn 39s
Bit rate mode : Variable
Bit rate : 4 984 Kbps
Width : 1 280 pixels
Height : 720 pixels
Display aspect ratio : 16:9
Frame rate mode : Constant
Frame rate : 24.000 fps
Color space : YUV
Chroma subsampling : 4:2:0
Bit depth : 8 bits
Scan type : Progressive
Bits/(Pixel*Frame) : 0.225
Stream size : 559 MiB (97%)
Language : English

Audio
ID : 1
Format : AAC
Format/Info : Advanced Audio Codec
Format profile : LC
Codec ID : 40
Duration : 15mn 39s
Bit rate mode : Constant
Bit rate : 126 Kbps
Channel(s) : 2 channels
Channel positions : Front: L R
Sampling rate : 44.1 KHz
Compression mode : Lossy
Stream size : 14.2 MiB (2%)
Language : English)
Desciption of [x - art] Mary (Pure Passion) Jun 04
Category XXX movies - HD
Genre       Teen      
Rating N/A
Size 573.31 MB
Show/Hide Files
2 files
AddDate 06/06/2011
Uploader armagedon
Speed 0 KB/sec
Down 12 times
peers seeds: 5, leechers: 4 = 9 peers
Who thanks


No comments...