Torrent’s details
Name

x - art Mary (Pure Passion) 1080p

Torrent
Info Hash 477f578139ec673b28cf7a6430f9415c90d2c0a1
Share with friends
Share |
Image x - art Mary (Pure Passion) 1080p
Screenshots
x - art Mary (Pure Passion) 1080p Image1 x - art Mary (Pure Passion) 1080p Image2 x - art Mary (Pure Passion) 1080p Image3 x - art Mary (Pure Passion) 1080p Image4
x - art Mary (Pure Passion) 1080p Image5
Embed code
embed code for x - art Mary (Pure Passion) 1080p
Description Имя актрисы: Mary
Название ролика: Pure Passion
Подсайт и сайт: x - art

Год производства: 2011 г.
Жанр: teen,big tits,Creampie
Продолжительность: 15mn 39s

Доп. информация:

MediaInfo
Format : MPEG-4
Format profile : QuickTime
Codec ID : qt
File size : 994 MiB
Duration : 15mn 39s
Overall bit rate : 8 870 Kbps
Encoded date : UTC 2011-06-09 22:10:59
Tagged date : UTC 2011-06-09 22:11:24
Writing library : Apple QuickTime

Video
ID : 2
Format : AVC
Format/Info : Advanced Video Codec
Format profile : Main@L4.0
Format settings, CABAC : No
Format settings, ReFrames : 2 frames
Format settings, GOP : M=2, N=24
Codec ID : avc1
Codec ID/Info : Advanced Video Coding
Duration : 15mn 39s
Duration_LastFrame : -1ms
Bit rate mode : Variable
Bit rate : 8 679 Kbps
Width : 1 920 pixels
Height : 1 080 pixels
Display aspect ratio : 16:9
Frame rate mode : Constant
Frame rate : 23.976 fps
Color space : YUV
Chroma subsampling : 4:2:0
Bit depth : 8 bits
Scan type : Progressive
Bits/(Pixel*Frame) : 0.175
Stream size : 973 MiB (98%)
Language : English
Encoded date : UTC 2011-06-09 21:36:08
Tagged date : UTC 2011-06-09 22:11:24
Color primaries : BT.709-5, BT.1361, IEC 61966-2-4, SMPTE RP177
Transfer characteristics : BT.709-5, BT.1361
Matrix coefficients : BT.709-5, BT.1361, IEC 61966-2-4 709, SMPTE RP177

Audio
ID : 1
Format : AAC
Format/Info : Advanced Audio Codec
Format profile : LC
Codec ID : 40
Duration : 15mn 39s
Bit rate mode : Constant
Bit rate : 192 Kbps
Channel(s) : 2 channels
Channel positions : Front: L R
Sampling rate : 48.0 KHz
Compression mode : Lossy
Stream size : 20.8 MiB (2%)
Language : English
Encoded date : UTC 2011-06-09 21:36:08
Tagged date : UTC 2011-06-09 22:11:24)

Тип HD видео: 1080p
Формат видео: MPEG
Видео кодек: QuickTime
Аудио кодек: AAC
Desciption of x - art Mary (Pure Passion) 1080p
Category XXX movies - HD
Genre       Teen      
Rating
Size 993.92 MB
Show/Hide Files
2 files
AddDate 20/06/2011
Uploader armagedon
Speed 0 KB/sec
Down 6 times
peers seeds: 9, leechers: 4 = 13 peers
Who thanks


No comments...