Torrent’s details
Name

Deepthroat Virgins 14

Torrent
Info Hash 4c5aa1047490beff9488cfd82dfeb022aba990be
Share with friends
Share |
Image  Deepthroat Virgins 14
Screenshots
Embed code
embed code for Deepthroat Virgins 14
Description



General
Complete name : D:TORRENTcompletedDeepthroat Virgins 14 [DVDRIP].avi
Format : AVI
Format/Info : Audio Video Interleave
File size : 698 MiB
Duration : 1h 31mn
Overall bit rate mode : Variable
Overall bit rate : 1 071 Kbps
Writing application : Nandub v1.0rc2
Writing library : Nandub build 1853/release

Video
ID : 0
Format : MPEG-4 Visual
Format profile : Advanced Simple@L5
Format settings, BVOP : 2
Format settings, QPel : No
Format settings, GMC : No warppoints
Format settings, Matrix : Default (H.263)
Muxing mode : Packed bitstream
Codec ID : XVID
Codec ID/Hint : XviD
Duration : 1h 31mn
Bit rate : 899 Kbps
Width : 448 pixels
Height : 336 pixels
Display aspect ratio : 4:3
Frame rate : 29.970 fps
Color space : YUV
Chroma subsampling : 4:2:0
Bit depth : 8 bits
Scan type : Interlaced
Scan order : Bottom Field First
Compression mode : Lossy
Bits/(Pixel*Frame) : 0.199
Stream size : 586 MiB (84%)
Writing library : XviD 1.0.3 (UTC 2004-12-20)

Audio
ID : 1
Format : MPEG Audio
Format version : Version 1
Format profile : Layer 3
Mode : Joint stereo
Codec ID : 55
Codec ID/Hint : MP3
Duration : 1h 31mn
Bit rate mode : Variable
Bit rate : 160 Kbps
Channel(s) : 2 channels
Sampling rate : 48.0 KHz
Compression mode : Lossy
Stream size : 103 MiB (15%)
Alignment : Aligned on interleaves
Interleave, duration : 24 ms (0.72 video frame)
Interleave, preload duration : 497 ms
Writing library : LAME3.95
Encoding settings : -m j -V 4 -q 3 -lowpass 18 --abr 160




Desciption of Deepthroat Virgins 14
Category XXX movies
Genre       Anal      
Rating N/A
Size 697.62 MB
Show/Hide Files
1 file
AddDate 11/04/2013
Uploader xjock4ever23
Speed 0 KB/sec
Down 13 times
peers seeds: 3, leechers: 4 = 7 peers
Who thanks


No comments...