Torrent’s details
Name

Naughty Office - Stacey Foxxx

Torrent
Info Hash 4cd7458eadf98543ac218fb6e85b54346eed7724
Share with friends
Share |
Image  Naughty Office - Stacey Foxxx
Screenshots
Embed code
embed code for Naughty Office - Stacey Foxxx
Description



General
Complete name : D:Torrentnostaceylevi_qt.mp4
Format : MPEG-4
Format profile : Base Media
Codec ID : isom
File size : 353 MiB
Duration : 32mn 29s
Overall bit rate mode : Variable
Overall bit rate : 1 518 Kbps
Encoded date : UTC 2013-04-09 19:56:54
Tagged date : UTC 2013-04-09 19:56:54
Writing application : Lavf53.32.100

Video
ID : 1
Format : AVC
Format/Info : Advanced Video Codec
Format profile : High@L3.0
Format settings, CABAC : Yes
Format settings, ReFrames : 4 frames
Codec ID : avc1
Codec ID/Info : Advanced Video Coding
Duration : 32mn 29s
Bit rate : 1 400 Kbps
Width : 854 pixels
Height : 480 pixels
Display aspect ratio : 16:9
Frame rate mode : Constant
Frame rate : 30.000 fps
Color space : YUV
Chroma subsampling : 4:2:0
Bit depth : 8 bits
Scan type : Progressive
Bits/(Pixel*Frame) : 0.114
Stream size : 325 MiB (92%)
Writing library : x264 core 120
Encoded date : UTC 2013-04-09 19:56:54
Tagged date : UTC 2013-04-09 19:56:54

Audio
ID : 2
Format : AAC
Format/Info : Advanced Audio Codec
Format profile : LC
Codec ID : 40
Duration : 32mn 29s
Bit rate mode : Variable
Bit rate : 109 Kbps
Maximum bit rate : 128 Kbps
Channel(s) : 2 channels
Channel positions : Front: L R
Sampling rate : 44.1 KHz
Compression mode : Lossy
Delay relative to video : 67ms
Stream size : 25.4 MiB (7%)
Language : English
Encoded date : UTC 2013-04-09 19:56:54
Tagged date : UTC 2013-04-09 19:56:54






Desciption of Naughty Office - Stacey Foxxx
Category XXX clips
Genre       Hardcore       Teen      
Rating N/A
Size 352.85 MB
Show/Hide Files
1 file
AddDate 11/04/2013
Uploader xjock4ever23
Speed 0 KB/sec
Down 8 times
peers seeds: 6, leechers: 3 = 9 peers
Who thanks


Trenchcoat 23/09/2014 10.28.01
It says the torrent isn't registered with the tracker so add

http://casanovax.com:2710/announce

to the tracker lists to make it download!
cool2.gif