Torrent’s details
Name

[czechmegaswingers.com / czechav.com] CZECH MEGA SWINGERS 12 - PART 1,2,3,4,5

Torrent
Info Hash 52cb516d656a75a3e25a949bccb4b01786d6869e
Share with friends
Share |
Image 	[czechmegaswingers.com / czechav.com] CZECH MEGA SWINGERS 12 - PART 1,2,3,4,5
Screenshots
	[czechmegaswingers.com / czechav.com] CZECH MEGA SWINGERS 12 - PART 1,2,3,4,5 Image1 	[czechmegaswingers.com / czechav.com] CZECH MEGA SWINGERS 12 - PART 1,2,3,4,5 Image2 	[czechmegaswingers.com / czechav.com] CZECH MEGA SWINGERS 12 - PART 1,2,3,4,5 Image3 	[czechmegaswingers.com / czechav.com] CZECH MEGA SWINGERS 12 - PART 1,2,3,4,5 Image4
	[czechmegaswingers.com / czechav.com] CZECH MEGA SWINGERS 12 - PART 1,2,3,4,5 Image5 	[czechmegaswingers.com / czechav.com] CZECH MEGA SWINGERS 12 - PART 1,2,3,4,5 Image6
Embed code
embed code for [czechmegaswingers.com / czechav.com] CZECH MEGA SWINGERS 12 - PART 1,2,3,4,5
Description Подсайт и сайт: czechmegaswingers.com / czechav.com
Год производства: 2011 г.
Жанр: All Sex, Amateur, Blowjob, Facial, Orgy, POV
Количество роликов: 5

Описание: Hope you didn’t wait too long for this. But relax, the long expected Czech mega swingers party is back with brand new people, the only things that stay the same are wild orgies, never ending switching of partners and the fact all participants here are amateurs. Hairy pussy, shaved pussy, young pussy, mature pussy, it’s all in here, just pick your favorite one. There’s not a single one room in our villa where people wouldn’t be fucking. Even our cameramen couldn’t resist and they joined this crazy fucking orgy. See for yourself, we guarantee you a good time.

Формат видео: WMV
Видео кодек: Windows Media
Аудио кодек: WMA
Полное имя : D:CZECH MEGA SWINGERS 12CZECH MEGA SWINGERS 12 - PART 1.wmv
Формат : Windows Media
Размер файла : 689 Мбайт
Продолжительность : 30 м.
Общий поток : 3174 Кбит/сек
Максимальный общий битрейт : 3128 Кбит/сек
Дата кодирования : UTC 1970-01-01 00:00:00.000
WM/EncodingSettings : Lavf53.6.0

Видео
Идентификатор : 1
Формат : WMV2
Идентификатор кодека : WMV2
Идентификатор кодека/Информация : Windows Media Video 8
Описание кодека : wmv2
Продолжительность : 30 м.
Битрейт : 2911 Кбит/сек
Ширина : 1280 пикселей
Высота : 720 пикселей
Соотношение сторон : 16:9
Частота кадров : 25,000 кадров/сек
Битовая глубина : 8 бит
Бит/(Пиксели*Кадры) : 0.126
Размер потока : 632 Мбайт (92%)

Аудио
Идентификатор : 2
Формат : WMA
Версия формата : Version 2
Идентификатор кодека : 161
Идентификатор кодека/Информация : Windows Media Audio
Описание кодека : Windows Media Audio V8
Продолжительность : 30 м.
Битрейт : 128 Кбит/сек
Каналы : 2 канала
Частота : 48,0 КГц
Битовая глубина : 16 бит
Размер потока : 27,8 Мбайт (4%)
Desciption of [czechmegaswingers.com / czechav.com] CZECH MEGA SWINGERS 12 - PART 1,2,3,4,5
Category XXX movies - HD
Genre       Amateur       Orgy (Group)      
Rating N/A
Size 3.27 GB
Show/Hide Files
5 files
AddDate 01/06/2012
Uploader armagedon
Speed 0 KB/sec
Down 10 times
peers seeds: 9, leechers: 3 = 12 peers
Who thanks


No comments...