Torrent’s details
Name

Jules Jordan - Rikki Six, Luna Star

Torrent
Info Hash 575c3f187b792f3c731137e785eff4dce30fd91a
Share with friends
Share |
Image  Jules Jordan - Rikki Six, Luna Star
Screenshots
Embed code
embed code for Jules Jordan - Rikki Six, Luna Star
Description


General
Complete name                            : Cgrin.gifocuments and SettingszsoltyMy DocumentsXXX3_way_oil_slick_sd_no_smoking_to_pornolab.net.mp4
Format                                   : MPEG-4
Format profile                           : Base Media
Codec ID                                 : isom
File size                                : 272 MiB
Duration                                 : 35mn 17s
Overall bit rate                         : 1 076 Kbps
Encoded date                             : UTC 2013-03-22 19:46:58
Tagged date                              : UTC 2013-03-22 19:46:58
Writing application                      : Lavf53.24.2

Video
ID                                       : 1
Format                                   : AVC
Format/Info                              : Advanced Video Codec
Format profile                           : Main@L3.0
Format settings, CABAC                   : Yes
Format settings, ReFrames                : 3 frames
Codec ID                                 : avc1
Codec ID/Info                            : Advanced Video Coding
Duration                                 : 35mn 17s
Bit rate                                 : 1 000 Kbps
Width                                    : 640 pixels
Height                                   : 360 pixels
Display aspect ratio                     : 16:9
Frame rate mode                          : Constant
Frame rate                               : 29.970 fps
Color space                              : YUV
Chroma subsampling                       : 4:2:0
Bit depth                                : 8 bits
Scan type                                : Progressive
Bits/(Pixel*Frame)                       : 0.145
Stream size                              : 253 MiB (93%)
Writing library                          : x264 core 124 r2197 69a0443
Encoding settings                        : cabac=1 / ref=3 / deblock=1:0:0 / analyse=0x1:0x111 / me=hex / subme=5 / psy=0 / mixed_ref=0 / me_range=16 / chroma_me=1 / trellis=1 / 8x8dct=0 / cqm=0 / deadzone=21,11 / fast_pskip=1 / chroma_qp_offset=0 / threads=6 / sliced_threads=0 / nr=0 / decimate=1 / interlaced=0 / bluray_compat=0 / constrained_intra=0 / bframes=3 / b_pyramid=0 / b_adapt=1 / b_bias=0 / direct=1 / weightb=0 / open_gop=0 / weightp=2 / keyint=300 / keyint_min=29 / scenecut=40 / intra_refresh=0 / rc=abr / mbtree=0 / bitrate=1000 / ratetol=1.0 / qcomp=0.60 / qpmin=10 / qpmax=51 / qpstep=4 / ip_ratio=1.40 / pb_ratio=1.30 / aq=1:1.00
Language                                 : English
Encoded date                             : UTC 2013-03-22 19:46:58
Tagged date                              : UTC 2013-03-22 19:46:58

Audio
ID                                       : 2
Format                                   : AAC
Format/Info                              : Advanced Audio Codec
Format profile                           : LC
Codec ID                                 : 40
Duration                                 : 35mn 17s
Bit rate mode                            : Constant
Bit rate                                 : 64.1 Kbps
Channel(s)                               : 2 channels
Channel positions                        : Front: L R
Sampling rate                            : 48.0 KHz
Compression mode                         : Lossy
Delay relative to video                  : 33ms
Stream size                              : 16.2 MiB (6%)
Language                                 : English
Encoded date                             : UTC 2013-03-22 19:46:58
Tagged date                              : UTC 2013-03-22 19:46:58







Desciption of Jules Jordan - Rikki Six, Luna Star
Category XXX clips
Genre       Oral       Teen      
Rating N/A
Size 271.70 MB
Show/Hide Files
1 file
AddDate 11/04/2013
Uploader xjock4ever23
Speed 0 KB/sec
Down 10 times
peers seeds: 7, leechers: 1 = 8 peers
Who thanks


No comments...