Torrent’s details
Name

Private Moments

Torrent
Info Hash 5b92d320e8d034684c5c1d99417d3da621821e61
Share with friends
Share |
Image  Private Moments
Screenshots
Embed code
embed code for Private Moments
Description


general
Complete name: C:  Private Moments.avi
Format: AVI
Format / Info: Audio Video Interleave
File Size: 1.09 GB
Duration: 1 hour
Overall bit rate: 2 095 Kbps
Writing application: VirtualDubMod 1.5.10.2 (build 2540/release)
Writing library: VirtualDubMod build 2540/release

picture
ID: 0
Format: MPEG-4 Visual
Format profile: Advanced Simple @ L5
Format settings, BVOP: 2
Format settings, QPel: No
Format settings, GMC: No warppoints 0
Format settings, Matrix:
Codec ID: XVID
Codec ID / Hint: XviD
Duration: 1 hour
Bit rate: 2 019 Kbps
Width: 624 pixels
Height: 480 pixels
Aspect Ratio: 4:3
Frame rate: 29.970 fps
Color space: YUV
Chroma: 4:2:0
Resolution / String: 8 bits
Scan type: Progressive
Bits / (Pixel * Frame): 0.225
Stream size: 1.05 GiB (96%)
Writing library: XviD 1.1.2 (UTC 2006-11-01)

sound
ID: 1
Format: MPEG Audio
Format version: Version 1
Format profile: Layer 3
Codec ID: 55
Codec ID / Hint: MP3
Duration: 1 hour
Bit rate mode: Variable
Bit rate: 64.0 Kbps
Number of Channels: 1 channel
Sampling rate: 48.0 KHz
Stream size: 34.1 MiB (3%)
Alignment:
Interleave, duration: 33 ms (1.00 video frame)
Interleave, preload duration: 504 ms




Desciption of Private Moments
Category XXX movies
Genre       Anal       Gonzo       Hardcore      
Rating N/A
Size 1.09 GB
Show/Hide Files
1 file
AddDate 06/04/2013
Uploader xjock4ever23
Speed 0 KB/sec
Down 6 times
peers seeds: 7, leechers: 4 = 11 peers
Who thanks


No comments...