Torrent’s details
Name

Ma.Patronne.est.une.Cochonne.2012.FRENCH.XXX.DVDRiP-PORNOCHiC

Torrent
Info Hash 60a31a7bb9fbe1b7509dd65a5e59f3044d701c25
Share with friends
Share |
Image Ma.Patronne.est.une.Cochonne.2012.FRENCH.XXX.DVDRiP-PORNOCHiC
Screenshots
Ma.Patronne.est.une.Cochonne.2012.FRENCH.XXX.DVDRiP-PORNOCHiC Image1
Embed code
embed code for Ma.Patronne.est.une.Cochonne.2012.FRENCH.XXX.DVDRiP-PORNOCHiC
Description Год производства: 2012 г.
Страна: france
Жанр: All sex
Продолжительность: 2h 6mn
Язык: Французский

Режиссер: Pascal Galbrun
Студия: Marc Dorcel

В ролях: Cerise, Emilie, Milena, Dan, Stéphane (a), Abby Swallow, Franck Bobo, Juliano Dallas, Lucas Travis, Yannick

Format : MPEG-4
Format profile : Base Media
Codec ID : isom
File size : 1.16 GiB
Duration : 2h 6mn
Overall bit rate : 1 316 Kbps
Encoded date : UTC 2012-11-29 23:50:13
Tagged date : UTC 2012-11-29 23:50:13

Video
ID : 1
Format : AVC
Format/Info : Advanced Video Codec
Format profile : High@L3.1
Format settings, CABAC : Yes
Format settings, ReFrames : 5 frames
Codec ID : avc1
Codec ID/Info : Advanced Video Coding
Duration : 2h 6mn
Bit rate mode : Variable
Bit rate : 1 215 Kbps
Maximum bit rate : 4 460 Kbps
Width : 720 pixels
Height : 400 pixels
Display aspect ratio : 16:9
Frame rate mode : Constant
Frame rate : 29.970 fps
Color space : YUV
Chroma subsampling : 4:2:0
Bit depth : 8 bits
Scan type : Progressive
Bits/(Pixel*Frame) : 0.141
Stream size : 1.08 GiB (92%)
Writing library : x264 core 125 r2200 999b753
Encoding settings : cabac=1 / ref=5 / deblock=1:0:0 / analyse=0x3:0x133 / me=umh / subme=8 / psy=1 / psy_rd=1.00:0.00 / mixed_ref=1 / me_range=16 / chroma_me=1 / trellis=1 / 8x8dct=1 / cqm=0 / deadzone=21,11 / fast_pskip=0 / chroma_qp_offset=-2 / threads=12 / lookahead_threads=2 / sliced_threads=0 / nr=0 / decimate=1 / interlaced=0 / bluray_compat=0 / constrained_intra=0 / bframes=3 / b_pyramid=2 / b_adapt=2 / b_bias=0 / direct=3 / weightb=1 / open_gop=0 / weightp=2 / keyint=300 / keyint_min=29 / scenecut=40 / intra_refresh=0 / rc_lookahead=60 / rc=crf / mbtree=1 / crf=20.0 / qcomp=0.60 / qpmin=0 / qpmax=69 / qpstep=4 / ip_ratio=1.40 / aq=1:1.00
Encoded date : UTC 2012-11-29 23:50:13
Tagged date : UTC 2012-11-29 23:57:16

Audio
ID : 2
Format : AAC
Format/Info : Advanced Audio Codec
Format profile : LC
Codec ID : 40
Duration : 2h 6mn
Bit rate mode : Variable
Bit rate : 96.0 Kbps
Maximum bit rate : 114 Kbps
Channel(s) : 2 channels
Channel positions : Front: L R
Sampling rate : 48.0 KHz
Compression mode : Lossy
Stream size : 87.0 MiB (7%)
Encoded date : UTC 2012-11-29 23:57:14
Tagged date : UTC 2012-11-29 23:57:16)
Desciption of Ma.Patronne.est.une.Cochonne.2012.FRENCH.XXX.DVDRiP-PORNOCHiC
Category XXX movies
Genre       Feature      
Rating N/A
Size 1.16 GB
Show/Hide Files
1 file
AddDate 09/12/2012
Uploader armagedon
Speed 0 KB/sec
Down 10 times
peers seeds: 5, leechers: 4 = 9 peers
Who thanks


No comments...