Torrent’s details
Name

Stick It In Deep And Watch Her Weep

Torrent
Info Hash 62ac43a204a8941d75f6c2812fb2b6638ed76d3c
Share with friends
Share |
Image Stick It In Deep And Watch Her Weep
Screenshots
Embed code
embed code for Stick It In Deep And Watch Her Weep
Description


general
Complete name: C:  Users  Pista  Downloads  stickitindeep_01_2500.wmv
Format: Windows Media
File Size: 357 MiB
Duration: 19 minutes
Overall bit rate mode: Constant
Overall bit rate: 2 500 Kbps
Maximum Overall bit rate: 2 510 Kbps
Encoded date: UTC 2007-08-30 15:40:11.812

picture
ID: 2
Format: WMV2
Codec ID: WMV2
Codec ID / Info: Windows Media Video 8
Description of the codec: Windows Media Video V8
Duration: 19 minutes
Bit rate mode: Variable
Bit rate: 2360 Kbps
Width: 720 pixels
Height: 480 pixels
Aspect Ratio: 3:2
Frame rate: 29.970 fps
Standard: NTSC
Resolution / String: 8 bits
Bits / (Pixel * Frame): 0.228
Stream size: 337 MiB (94%)
Language: English (U.S.)

sound
ID: 1
Format: WMA
Format version: Version 2
Codec ID: 161
Codec ID / Info: Windows Media Audio
Description of the codec: Windows Media Audio 9.2 - 128 kbps, 48 kHz, stereo 1-pass CBR
Duration: 19 minutes
Bit rate mode: Variable
Bit rate: 128 Kbps
Number of channels: 2 channels
Sampling rate: 48.0 KHz
Resolution / String: 16 bits
Stream size: 18.3 MiB (5%)
Language: English (U.S.)
 








 










Desciption of Stick It In Deep And Watch Her Weep
Category XXX movies
Genre       Anal       Hardcore      
Rating
Size 1.78 GB
Show/Hide Files
5 files
AddDate 07/04/2013
Uploader xjock4ever23
Speed 0 KB/sec
Down 1 times
peers seeds: 8, leechers: 4 = 12 peers
Who thanks


No comments...