Torrent’s details
Name

18YearsOld - Allyssa Hall

Torrent
Info Hash 689ba048e5e02486e2263b184d7f6630ba58a363
Share with friends
Share |
Screenshots
Embed code
embed code for 18YearsOld - Allyssa Hall
Description
General
Complete name                            : C:UsersclaudiuDownloads8.07.17.Allyssa Hall_18YearsOld.wmv
Format                                   : Windows Media
File size                                : 278 MiB
Duration                                 : 35mn 12s
Overall bit rate mode                    : Constant
Overall bit rate                         : 1 102 Kbps
Maximum Overall bit rate                 : 1 108 Kbps
Encoded date                             : UTC 2008-07-07 15:27:10.504
Writing application                      : TMPGEnc 4.0 XPress Version. 4.2.3.193

Video
ID                                       : 2
Format                                   : VC-1
Format profile                           : MP@ML
Codec ID                                 : WMV3
Codec ID/Info                            : Windows Media Video 9
Codec ID/Hint                            : WMV3
Description of the codec                 : Windows Media Video 9
Duration                                 : 35mn 12s
Bit rate mode                            : Constant
Bit rate                                 : 1 000 Kbps
Width                                    : 512 pixels
Height                                   : 288 pixels
Display aspect ratio                     : 16:9
Frame rate                               : 29.970 fps
Bit depth                                : 8 bits
Scan type                                : Progressive
Compression mode                         : Lossy
Bits/(Pixel*Frame)                       : 0.226
Stream size                              : 252 MiB (91%)
Language                                 : English (US)

Audio
ID                                       : 1
Format                                   : WMA
Format version                           : Version 2
Codec ID                                 : 161
Codec ID/Info                            : Windows Media Audio
Description of the codec                 : Windows Media Audio 9.2 -  96 kbps, 48 kHz, stereo 1-pass CBR
Duration                                 : 35mn 12s
Bit rate mode                            : Constant
Bit rate                                 : 96.0 Kbps
Channel(s)                               : 2 channels
Sampling rate                            : 48.0 KHz
Bit depth                                : 16 bits
Stream size                              : 24.2 MiB (9%)
Language                                 : English (US)

SCREENER WATCH HERE :


http://adf.ly/AU4F9

http://3640e4a3.galleries.bz



Desciption of 18YearsOld - Allyssa Hall
Category XXX movies - DVD
Genre       Fetish       Oral       Teen      
Rating N/A
Size 277.60 MB
Show/Hide Files
1 file
AddDate 08/07/2012
Uploader kameluss
Speed 0 KB/sec
Down 1 times
peers seeds: 0, leechers: 0 = 0 peers
Who thanks


No comments...