Torrent’s details
Name

Zooskool_Stray_X_Sugar_Dane_Excellent_Missionary_Dogfuck

Torrent
Info Hash 6bf508195b4f8a9011ff6cd90f0f4f6d80546f9b
Share with friends
Share |
Image Zooskool_Stray_X_Sugar_Dane_Excellent_Missionary_Dogfuck
Screenshots
Zooskool_Stray_X_Sugar_Dane_Excellent_Missionary_Dogfuck Image1 Zooskool_Stray_X_Sugar_Dane_Excellent_Missionary_Dogfuck Image2
Embed code
embed code for Zooskool_Stray_X_Sugar_Dane_Excellent_Missionary_Dogfuck
Description Zooskool - Stray-X - Sugar Dane Excellent Missionary Dogfuck

Format                           : AVI
Format/Info                      : Audio Video Interleave
File size                        : 206 MiB
Duration                         : 27mn 48s
Overall bit rate                 : 1 034 Kbps

Video
ID                               : 0
Format                           : MPEG-4 Visual
Format settings, BVOP            : Yes
Format settings, QPel            : No
Format settings, GMC             : No warppoints
Format settings, Matrix          : Default (H.263)
Muxing mode                      : Packed bitstream
Codec ID                         : DX50
Codec ID/Hint                    : DivX 5
Duration                         : 27mn 48s
Bit rate                         : 710 Kbps
Width                            : 700 pixels
Height                           : 524 pixels
Display aspect ratio             : 4:3
Frame rate                       : 25.000 fps
Color space                      : YUV
Chroma subsampling               : 4:2:0
Bit depth                        : 8 bits
Scan type                        : Progressive
Bits/(Pixel*Frame)               : 0.077
Stream size                      : 141 MiB (69%)
Title                            : CamCapture49f58a5_Screen.avi Video #1
Writing library                  : DivX 6.2.2 (UTC 2006-04-26)

Audio
ID                               : 1
Format                           : MPEG Audio
Format version                   : Version 1
Format profile                   : Layer 3
Mode                             : Joint stereo
Codec ID                         : 55
Codec ID/Hint                    : MP3
Duration                         : 27mn 45s
Bit rate mode                    : Constant
Bit rate                         : 320 Kbps
Channel(s)                       : 2 channels
Sampling rate                    : 48.0 KHz
Stream size                      : 63.5 MiB (31%)
Alignment                        : Split accross interleaves
Interleave, duration             : 1002 ms (25.04 video frames)
Interleave, preload duration     : 1000 ms
Title                            : Microsoft Waveform: CamConvert4b8e6e1.wav
Writing library                  : LAME3.96.1
Desciption of Zooskool_Stray_X_Sugar_Dane_Excellent_Missionary_Dogfuck
Category XXX clips
Genre       Zoo (animal)       Dog      
Rating
Size 205.80 MB
Show/Hide Files
3 files
AddDate 13/10/2010
Uploader ROROS
Speed 0 KB/sec
Down 219 times
peers seeds: 0, leechers: 0 = 0 peers
Who thanks


No comments...