Torrent’s details
Name

Miss Uniform 3 XXX DVDRip XviD-CiCXXX

Torrent
Info Hash 7000bdde43f94fb257777a8ef6c6c1a60b94eea8
Share with friends
Share |
Image Miss Uniform 3 XXX DVDRip XviD-CiCXXX
Screenshots
Embed code
embed code for Miss Uniform 3 XXX DVDRip XviD-CiCXXX
Description Video
Format                           : MPEG-4 Visual
Format profile                   : Streaming Video@L1
Format settings, BVOP            : Yes
Format settings, QPel            : No
Format settings, GMC             : No warppoints
Format settings, Matrix          : Default
Codec ID                         : XVID
Codec ID/Hint                    : XviD
Duration                         : 1h 9mn
Bit rate                         : 1 266 Kbps
Width                            : 512 pixels
Height                           : 288 pixels
Display aspect ratio             : 16/9
Frame rate                       : 25.000 fps
Resolution                       : 24 bits
Colorimetry                      : 4:2:0
Scan type                        : Progressive
Bits/(Pixel*Frame)               : 0.343
Stream size                      : 629 MiB (90%)
Writing library                  : XviD 1.1.2 (UTC 2006-11-01)

Audio
Format                           : MPEG Audio
Format version                   : Version 1
Format profile                   : Layer 3
Codec ID                         : 55
Codec ID/Hint                    : MP3
Duration                         : 1h 9mn
Bit rate mode                    : Variable
Bit rate                         : 130 Kbps
Channel(s)                       : 2 channels
Sampling rate                    : 48.0 KHz
Resolution                       : 16 bits
Stream size                      : 64.6 MiB (9%)
Alignment                        : Aligned on interleaves
Interleave, duration             : 24 ms (0.60 video frame)
Interleave, preload duration     : 477 ms

http://www.dvderotik.com/catalog/product_info.php/products_id/16143
       

Desciption of Miss Uniform 3 XXX DVDRip XviD-CiCXXX
Category XXX movies
Genre       Hardcore      
Rating N/A
Size 1.38 GB
Show/Hide Files
103 files
AddDate 12/11/2012
Uploader xjock4ever23
Speed 0 KB/sec
Down 9 times
peers seeds: 2, leechers: 1 = 3 peers
Who thanks


No comments...