Torrent’s details
Name

Alisss

Torrent
Info Hash 75216b9a8e826569ea3c4c2adbf8fc50e19f73fc
Share with friends
Share |
Image Alisss
Screenshots
Alisss Image1 Alisss Image2 Alisss Image3 Alisss Image4
Embed code
embed code for Alisss
Description Double Anal Fisting for Alisya

DOUBLE ANAL FISTING FOR ALISYA -.wmv
     Format : Windows Media
     File size : 716 MiB
     Duration : 21mn 14s
     Overall bit rate mode : Variable
     Overall bit rate : 4 717 Kbps
     Maximum Overall bit rate : 8 097 Kbps
     Encoded date : UTC 2009-11-29 11:15:49.828
  Video #2
     ID : 2
     Format : VC-1
     Format profile : MP@HL
     Codec ID : WMV3
     Codec ID/Info : Windows Media Video 9
     Codec ID/Hint : WMV3
     Description of the codec : Windows Media Video 9 - Professional
     Duration : 21mn 14s
     Bit rate mode : Variable
     Bit rate : 5 000 Kbps
     Width : 1 280 pixels
     Height : 720 pixels
     Display aspect ratio : 16:9
     Frame rate : 25.000 fps
     Resolution : 24 bits
     Scan type : Progressive
     Bits/(Pixel*Frame) : 0.217
     Stream size : 759 MiB
     Language : English (US)
  Audio #1
     ID : 1
     Format : WMA2
     Format profile : L2
     Codec ID : 161
     Codec ID/Info : Windows Media Audio 2
     Description of the codec : Windows Media Audio 9 -  64 kbps, 48 kHz, stereo (A/V) 1-pass CBR
     Duration : 21mn 14s
     Bit rate mode : Constant
     Bit rate : 64.0 Kbps
     Channel(s) : 2 channels
     Sampling rate : 48.0 KHz
     Resolution : 16 bits
     Stream size : 9.73 MiB (1%)
     Language : English (US)
Desciption of Alisss
Category XXX clips
Genre       Anal       Lesbian      
Rating N/A
Size 720.60 MB
Show/Hide Files
29 files
AddDate 28/03/2010
Uploader petunkata
Speed 0 KB/sec
Down 22 times
peers seeds: 0, leechers: 0 = 0 peers
Who thanks


s6ekspir 14/11/2010 14.00.02
laugh.gif