Torrent’s details
Name

[DigitalDesire.com / DDGirls.com] - Aprel, 2011-04 - x9 клипов. [1280x720]

Torrent
Info Hash 758efe41cae68ce2abdaadc3481b54adeb8b969b
Share with friends
Share |
Image 	[DigitalDesire.com / DDGirls.com] - Aprel, 2011-04 - x9 клипов. [1280x720]
Screenshots
Embed code
embed code for [DigitalDesire.com / DDGirls.com] - Aprel, 2011-04 - x9 клипов. [1280x720]
Description







Представляют Модели:
Amy Ried, Jaime Hammer, Bella Moretti, Nadia Aria, Victoria Rae Black, Talia Palmer, Samantha Saint, Haley Cummings, Lizz Tayler

9 видеосетов. 1280х720 HD

Список видеоклипов:

2011-04-06 - Amy Ried _110815_6-vid-720-h264.m4v
2011-04-08 - Jaime Hammer _110940_6-vid-720-h264.m4v
2011-04-13 - Bella Moretti _111407_6-vid-720-h264.m4v
2011-04-15 - Nadia Aria _111245_6-vid-720-h264.m4v
2011-04-20 - Victoria Rae Black _111428_6-vid-720-h264.m4v
2011-04-23 - Talia Palmer _111434_6-vid-720-h264.m4v
2011-04-27 - Samantha Saint _111447_6-vid-720-h264.m4v
2011-04-28 - Haley Cummings _111280_6-vid-720-h264.m4v
2011-04-30 - Lizz Tayler _111337_6-vid-720-h264

Формат : MPEG-4
Идентификатор кодека : M4V
Размер файла : 150 Мбайт
Продолжительность : 6 м. 37 с.
Общий поток : 3155 Кбит/сек

Видео
Идентификатор : 1
Формат : AVC
Формат/Информация : Advanced Video Codec
Профиль формата : High@L4.0
Параметр CABAC формата : Да
Параметр ReFrames формата : 8 кадры
Идентификатор кодека : avc1
Идентификатор кодека/Информация : Advanced Video Coding
Продолжительность : 6 м. 37 с.
Вид битрейта : Переменный
Битрейт : 3021 Кбит/сек
Ширина : 1280 пикс.
Высота : 720 пикс.
Соотношение сторон : 16:9
Режим частоты кадров : Постоянный
Частота кадров : 29,970 кадр/сек
Цветовое пространство : YUV
Подвыборка цветности : 4:2:0
Битовая глубина : 8 бит
Тип развёртки : Прогрессивная
Бит/(Пиксели*Кадры) : 0.109
Размер потока : 143 Мбайт (96%)

Аудио
Идентификатор : 2
Формат : AAC
Формат/Информация : Advanced Audio Codec
Профиль формата : LC
Идентификатор кодека : 40
Продолжительность : 6 м. 37 с.
Вид битрейта : Переменный
Битрейт : 128 Кбит/сек
Канал(ы) : 2 канала(ов)
Расположение каналов : Front: L R
Частота : 44,1 КГц
Метод сжатия : С потерями
Размер потока : 6,07 Мбайт (4%)
Desciption of [DigitalDesire.com / DDGirls.com] - Aprel, 2011-04 - x9 клипов. [1280x720]
Category XXX movies - HD
Genre       Masturbation      
Rating N/A
Size 1.57 GB
Show/Hide Files
27 files
AddDate 16/05/2011
Uploader armagedon
Speed 0 KB/sec
Down 12 times
peers seeds: 2, leechers: 1 = 3 peers
Who thanks


No comments...