Torrent’s details
Name

[czechmegaswingers.com / czechav.com] CZECH MEGA SWINGERS 13 - PART 1,2,3,4

Torrent
Info Hash 76cf7fe52c2c87439ec9112bbf686dabe096a762
Share with friends
Share |
Image 	[czechmegaswingers.com / czechav.com] CZECH MEGA SWINGERS 13 - PART 1,2,3,4
Screenshots
	[czechmegaswingers.com / czechav.com] CZECH MEGA SWINGERS 13 - PART 1,2,3,4 Image1 	[czechmegaswingers.com / czechav.com] CZECH MEGA SWINGERS 13 - PART 1,2,3,4 Image2 	[czechmegaswingers.com / czechav.com] CZECH MEGA SWINGERS 13 - PART 1,2,3,4 Image3 	[czechmegaswingers.com / czechav.com] CZECH MEGA SWINGERS 13 - PART 1,2,3,4 Image4
Embed code
embed code for [czechmegaswingers.com / czechav.com] CZECH MEGA SWINGERS 13 - PART 1,2,3,4
Description Подсайт и сайт: czechmegaswingers.com / czechav.com
Год производства: 2012 г.
Жанр: All Sex, Amateur, Blowjob, Facial, Orgy, POV
Количество роликов: 4

Описание: Czech Megaswingers are back, with special New Year’s Eve edition. Girls and mature women with their boyfriends and husbands in a wild changing of partners, nobody stays behind. Young girls with huge tits and mature women with unshaved pussies, everyone will be satisfied. With huge amounts of alcohol people lost all their shame and were fucking in every single room of our house. Threesomes in the bathroom, orgies by the pool, in the living room, just everywhere. Watch Czech amateurs fuck each other’s brains out and enjoy this wonderful spectacle. This is what we call a New Year’s Eve celebration.

Формат видео: WMV
Видео кодек: Windows Media
Аудио кодек: WMA
Полное имя : D:CZECH MEGA SWINGERS 13CZECH MEGA SWINGERS 13 - PART 1.wmv
Формат : Windows Media
Размер файла : 763 Мбайт
Продолжительность : 28 м.
Общий поток : 3723 Кбит/сек
Максимальный общий битрейт : 3128 Кбит/сек
Дата кодирования : UTC 1970-01-01 00:00:00.000
WM/EncodingSettings : Lavf53.6.0

Видео
Идентификатор : 1
Формат : WMV2
Идентификатор кодека : WMV2
Идентификатор кодека/Информация : Windows Media Video 8
Описание кодека : wmv2
Продолжительность : 28 м.
Битрейт : 3439 Кбит/сек
Ширина : 1280 пикселей
Высота : 720 пикселей
Соотношение сторон : 16:9
Частота кадров : 25,000 кадров/сек
Битовая глубина : 8 бит
Бит/(Пиксели*Кадры) : 0.149
Размер потока : 704 Мбайт (92%)

Аудио
Идентификатор : 2
Формат : WMA
Версия формата : Version 2
Идентификатор кодека : 161
Идентификатор кодека/Информация : Windows Media Audio
Описание кодека : Windows Media Audio V8
Продолжительность : 28 м.
Битрейт : 128 Кбит/сек
Каналы : 2 канала
Частота : 48,0 КГц
Битовая глубина : 16 бит
Размер потока : 26,2 Мбайт (3%)
Desciption of [czechmegaswingers.com / czechav.com] CZECH MEGA SWINGERS 13 - PART 1,2,3,4
Category XXX movies - HD
Genre       Amateur       Orgy (Group)      
Rating N/A
Size 2.70 GB
Show/Hide Files
4 files
AddDate 01/06/2012
Uploader armagedon
Speed 0 KB/sec
Down 2 times
peers seeds: 9, leechers: 3 = 12 peers
Who thanks


No comments...