Torrent’s details
Name

PixAndVideo.com - Sabrinka - With My Professor 720p.wmv

Torrent
Info Hash 76fc1a19889f846815c6f6c24c85124e6804c846
Share with friends
Share |
Image PixAndVideo.com - Sabrinka - With My Professor 720p.wmv
Screenshots
Embed code
embed code for PixAndVideo.com - Sabrinka - With My Professor 720p.wmv
Description


General
Complete name                    : Dtongue.gifROGAROKPixAndVideo.com - Sabrinka - With My Professor 720p.wmv
Format                           : Windows Media
File size                        : 559 MiB
Duration                         : 15mn 43s
Overall bit rate mode            : Constant
Overall bit rate                 : 4 967 Kbps
Maximum Overall bit rate         : 3 122 Kbps
Encoded date                     : UTC 2008-12-29 23:02:31.332

Video
ID                               : 2
Format                           : VC-1
Format profile                   : MP@HL
Codec ID                         : WMV3
Codec ID/Info                    : Windows Media Video 9
Codec ID/Hint                    : WMV3
Description of the codec         : Windows Media Video 9 - Professional
Duration                         : 15mn 43s
Bit rate mode                    : Constant
Bit rate                         : 3 000 Kbps
Width                            : 1 280 pixels
Height                           : 720 pixels
Display aspect ratio             : 16:9
Frame rate                       : 25.000 fps
Bit depth                        : 8 bits
Scan type                        : Progressive
Compression mode                 : Lossy
Bits/(Pixel*Frame)               : 0.130
Stream size                      : 338 MiB (60%)
Language                         : Hungarian

Audio
ID                               : 1
Format                           : WMA
Format version                   : Version 2
Codec ID                         : 161
Codec ID/Info                    : Windows Media Audio
Description of the codec         : Windows Media Audio 9.2 -  96 kbps, 44 kHz, stereo 1-pass CBR
Duration                         : 15mn 43s
Bit rate mode                    : Constant
Bit rate                         : 96.0 Kbps
Channel(s)                       : 2 channels
Sampling rate                    : 44.1 KHz
Bit depth                        : 16 bits
Stream size                      : 10.8 MiB (2%)
Language                         : English (US)






Desciption of PixAndVideo.com - Sabrinka - With My Professor 720p.wmv
Category XXX movies - HD
Genre       All Girls       Teen      
Rating
Size 558.83 MB
Show/Hide Files
1 file
AddDate 03/03/2012
Uploader hanil
Speed 0 KB/sec
Down 1 times
peers seeds: 0, leechers: 0 = 0 peers
Who thanks


No comments...