Torrent’s details
Name

[czechmegaswingers.com / czechav.com] CZECH MEGA SWINGERS 15 - PART 1,2,3

Torrent
Info Hash 7e6819d6244786aa5a2096959c304b6b3158586b
Share with friends
Share |
Image [czechmegaswingers.com / czechav.com] CZECH MEGA SWINGERS 15 - PART 1,2,3
Screenshots
[czechmegaswingers.com / czechav.com] CZECH MEGA SWINGERS 15 - PART 1,2,3 Image1 [czechmegaswingers.com / czechav.com] CZECH MEGA SWINGERS 15 - PART 1,2,3 Image2 [czechmegaswingers.com / czechav.com] CZECH MEGA SWINGERS 15 - PART 1,2,3 Image3
Embed code
embed code for [czechmegaswingers.com / czechav.com] CZECH MEGA SWINGERS 15 - PART 1,2,3
Description Подсайт и сайт: czechmegaswingers.com / czechav.com
Год производства: 2012 г.
Жанр: All Sex, Amateur, Blowjob, Facial, Orgy, POV
Количество роликов: 3

Описание: Czech MegaSwingers is here with the opening part of a fresh episode! Our team found a few dozen wonderful amateurs this time and brought them to an unforgettable New Year's Eve swingers party at our famous fun mansion. In this first episode, our cameramen got lucky with two beautiful girls - right in the first minutes of the evening, and they got to shoot three young couples in wild action. A beautiful brunette, a cute redhead, a milfy lady and a busty young cockhungry vixen. Don't you dare miss this amazing addition to our most ambitious project!

Формат видео: WMV
Видео кодек: Windows Media
Аудио кодек: WMA
Формат : Windows Media
Размер файла : 870 Мбайт
Продолжительность : 32 м.
Общий поток : 3728 Кбит/сек
Максимальный общий битрейт : 3128 Кбит/сек
Дата кодирования : UTC 1970-01-01 00:00:00.000
WM/EncodingSettings : Lavf53.6.0

Видео
Идентификатор : 1
Формат : WMV2
Идентификатор кодека : WMV2
Идентификатор кодека/Информация : Windows Media Video 8
Описание кодека : wmv2
Продолжительность : 32 м.
Битрейт : 3444 Кбит/сек
Ширина : 1280 пикселей
Высота : 720 пикселей
Соотношение сторон : 16:9
Частота кадров : 25,000 кадров/сек
Битовая глубина : 8 бит
Бит/(Пиксели*Кадры) : 0.149
Размер потока : 803 Мбайт (92%)

Аудио
Идентификатор : 2
Формат : WMA
Версия формата : Version 2
Идентификатор кодека : 161
Идентификатор кодека/Информация : Windows Media Audio
Описание кодека : Windows Media Audio V8
Продолжительность : 32 м.
Битрейт : 128 Кбит/сек
Каналы : 2 канала
Частота : 48,0 КГц
Битовая глубина : 16 бит
Размер потока : 29,9 Мбайт (3%)
Desciption of [czechmegaswingers.com / czechav.com] CZECH MEGA SWINGERS 15 - PART 1,2,3
Category XXX movies - HD
Genre       Amateur       Orgy (Group)      
Rating N/A
Size 1.91 GB
Show/Hide Files
3 files
AddDate 01/06/2012
Uploader armagedon
Speed 0 KB/sec
Down 12 times
peers seeds: 2, leechers: 3 = 5 peers
Who thanks


No comments...