Torrent’s details
Name

Big Butts Like It Big - MADISON ROSE

Torrent
Info Hash 82060ec1e930f9f7b7abe6dfcd2fbcca00571c27
Share with friends
Share |
Image Big Butts Like It Big - MADISON ROSE
Screenshots
Big Butts Like It Big - MADISON ROSE Image1 Big Butts Like It Big - MADISON ROSE Image3
Big Butts Like It Big - MADISON ROSE Image5 Big Butts Like It Big - MADISON ROSE Image7
Embed code
embed code for Big Butts Like It Big - MADISON ROSE
Description General
Complete name                    : D:Up2013Big Butts Like It Big - MADISON ROSEbblib_madison_rose_272p_650_mobile.mp4
Format                           : MPEG-4
Format profile                   : Base Media
Codec ID                         : isom
File size                        : 208 MiB
Duration                         : 35mn 29s
Overall bit rate                 : 820 Kbps
Writing application              : Lavf54.37.100

Video
ID                               : 1
Format                           : AVC
Format/Info                      : Advanced Video Codec
Format profile                   : Baseline@L2.1
Format settings, CABAC           : No
Format settings, ReFrames        : 5 frames
Codec ID                         : avc1
Codec ID/Info                    : Advanced Video Coding
Duration                         : 35mn 29s
Bit rate                         : 650 Kbps
Width                            : 480 pixels
Height                           : 272 pixels
Display aspect ratio             : 16:9
Original display aspect ratio    : 16:9
Frame rate mode                  : Constant
Frame rate                       : 29.970 fps
Color space                      : YUV
Chroma subsampling               : 4:2:0
Bit depth                        : 8 bits
Scan type                        : Progressive
Bits/(Pixel*Frame)               : 0.166
Stream size                      : 165 MiB (80%)
Writing library                  : x264 core 128 r2216 198a7ea
Encoding settings                : cabac=0 / ref=5 / deblock=1:0:0 / analyse=0x1:0x111 / me=umh / subme=8 / psy=1 / psy_rd=1.00:0.00 / mixed_ref=1 / me_range=16 / chroma_me=1 / trellis=1 / 8x8dct=0 / cqm=0 / deadzone=21,11 / fast_pskip=1 / chroma_qp_offset=-2 / threads=36 / lookahead_threads=4 / sliced_threads=0 / nr=0 / decimate=1 / interlaced=0 / bluray_compat=0 / constrained_intra=0 / bframes=0 / weightp=0 / keyint=60 / keyint_min=6 / scenecut=40 / intra_refresh=0 / rc_lookahead=50 / rc=abr / mbtree=1 / bitrate=650 / ratetol=1.0 / qcomp=0.60 / qpmin=0 / qpmax=69 / qpstep=4 / ip_ratio=1.40 / aq=1:1.00
Tagged date                      : UTC 2013-01-05 04:22:20

Audio
ID                               : 2
Format                           : AAC
Format/Info                      : Advanced Audio Codec
Format profile                   : LC
Codec ID                         : 40
Duration                         : 35mn 29s
Duration_LastFrame               : -9ms
Bit rate mode                    : Constant
Bit rate                         : 128 Kbps
Channel(s)                       : 2 channels
Channel positions                : Front: L R
Sampling rate                    : 48.0 KHz
Compression mode                 : Lossy
Stream size                      : 32.5 MiB (16%)
Tagged date                      : UTC 2013-01-05 04:22:20

Desciption of Big Butts Like It Big - MADISON ROSE
Category XXX clips
Genre       Anal       Hardcore      
Rating N/A
Size 211.38 MB
Show/Hide Files
21 files
AddDate 16/01/2013
Uploader Send as anonymous
Speed 0 KB/sec
Down 13 times
peers seeds: 1, leechers: 4 = 5 peers
Who thanks


No comments...