Torrent’s details
Name

[RealSlutParty.com / Mofos.com] Danni Cole (Pussy In Da Club / 831)

Torrent
Info Hash 8370e4e4828dd8b1c422789b03911673d30be694
Share with friends
Share |
Image [RealSlutParty.com / Mofos.com] Danni Cole (Pussy In Da Club / 831)
Screenshots
[RealSlutParty.com / Mofos.com] Danni Cole (Pussy In Da Club / 831)  Image1 [RealSlutParty.com / Mofos.com] Danni Cole (Pussy In Da Club / 831)  Image2 [RealSlutParty.com / Mofos.com] Danni Cole (Pussy In Da Club / 831)  Image3
Embed code
embed code for [RealSlutParty.com / Mofos.com] Danni Cole (Pussy In Da Club / 831)
Description
Название ролика: Pussy In Da Club
Номер на сайте: 831
Подсайт и сайт: RealSlutParty.com / Mofos.com
Год производства: May 17, 2011 г.
Жанр: Amateur, Big Tits, Brunette, Facial, Party
Продолжительность: 00:26:56

Доп. информация:
http://www.mofos.com/tour/scene/pussy-in-da-club/831/

Битрейт видео: 2 249 Кбит/сек
Формат видео: WMV
Видео кодек: Windows Media
Аудио кодек: WMA
Видео: Windows Media Video 8 768x432 2249kbps
Аудио: Windows Media Audio 48000Hz stereo 64kbps


General
Complete name                    : Dtongue.gifROGAROKrsp_danni_cole-sd169.wmv
Format                           : Windows Media
File size                        : 462 MiB
Duration                         : 26mn 56s
Overall bit rate                 : 2 396 Kbps
Maximum Overall bit rate         : 2 364 Kbps
Encoded date                     : UTC 1970-01-01 00:00:00.000

Video
ID                               : 1
Format                           : WMV2
Codec ID                         : WMV2
Codec ID/Info                    : Windows Media Video 8
Description of the codec         : wmv2
Duration                         : 26mn 56s
Bit rate                         : 2 228 Kbps
Width                            : 768 pixels
Height                           : 432 pixels
Display aspect ratio             : 16:9
Frame rate                       : 29.970 fps
Bit depth                        : 8 bits
Bits/(Pixel*Frame)               : 0.224
Stream size                      : 429 MiB (93%)

Audio
ID                               : 2
Format                           : WMA
Format version                   : Version 2
Codec ID                         : 161
Codec ID/Info                    : Windows Media Audio
Description of the codec         : Windows Media Audio V8
Duration                         : 26mn 56s
Bit rate                         : 64.0 Kbps
Channel(s)                       : 2 channels
Sampling rate                    : 48.0 KHz
Bit depth                        : 16 bits
Stream size                      : 12.3 MiB (3%)


Desciption of [RealSlutParty.com / Mofos.com] Danni Cole (Pussy In Da Club / 831)
Category XXX movies
Genre       Fetish       Gonzo       Teen      
Rating N/A
Size 461.69 MB
Show/Hide Files
1 file
AddDate 13/01/2012
Uploader hanil
Speed 0 KB/sec
Down 11 times
peers seeds: 0, leechers: 0 = 0 peers
Who thanks


No comments...