Torrent’s details
Name

Mandingo 3

Torrent
Info Hash 90e5ecf293f451a12afbb8d1abb11281f07c16a8
Share with friends
Share |
Image Mandingo 3
Screenshots
Embed code
embed code for Mandingo 3
Description Title: Mandingo 3
Year: 2003
Studio: West Coast Productions
Director: Mandingo

General
Complete name                            : Mandingo 3Mandingo.3.scene1.Judy.Star.avi
Format                                   : AVI
Format/Info                              : Audio Video Interleave
File size                                : 433 MiB
Duration                                 : 34mn 0s
Overall bit rate mode                    : Variable
Overall bit rate                         : 1 780 Kbps

Video
ID                                       : 0
Format                                   : MPEG-4 Visual
Format profile                           : Advanced Simple@L5
Format settings, BVOP                    : 1
Format settings, QPel                    : No
Format settings, GMC                     : No warppoints
Format settings, Matrix                  : Default (H.263)
Codec ID                                 : XVID
Codec ID/Hint                            : XviD
Duration                                 : 34mn 0s
Bit rate                                 : 1 671 Kbps
Width                                    : 608 pixels
Height                                   : 448 pixels
Display aspect ratio                     : 4:3
Frame rate                               : 29.970 fps
Color space                              : YUV
Chroma subsampling                       : 4:2:0
Bit depth                                : 8 bits
Scan type                                : Progressive
Compression mode                         : Lossy
Bits/(Pixel*Frame)                       : 0.205
Stream size                              : 406 MiB (94%)
Writing library                          : XviD 1.2.1 (UTC 2008-12-04)

Audio
ID                                       : 1
Format                                   : MPEG Audio
Format version                           : Version 1
Format profile                           : Layer 3
Mode                                     : Joint stereo
Mode extension                           : MS Stereo
Codec ID                                 : 55
Codec ID/Hint                            : MP3
Duration                                 : 24mn 27s
Source duration                          : 34mn 42s
Bit rate mode                            : Variable
Bit rate                                 : 91.8 Kbps
Minimum bit rate                         : 32.0 Kbps
Channel(s)                               : 2 channels
Sampling rate                            : 48.0 KHz
Compression mode                         : Lossy
Stream size                              : 22.8 MiB (5%)
Alignment                                : Aligned on interleaves
Interleave, duration                     : 24 ms (0.72 video frame)
Writing library                          : LAME3.99r
Encoding settings                        : -m j -V 4 -q 0 -lowpass 17.5 --vbr-new -b 32

General
Complete name                            : Mandingo 3Mandingo.3.scene2.Ice.avi
Format                                   : AVI
Format/Info                              : Audio Video Interleave
File size                                : 260 MiB
Duration                                 : 23mn 46s
Overall bit rate mode                    : Variable
Overall bit rate                         : 1 528 Kbps

Video
ID                                       : 0
Format                                   : MPEG-4 Visual
Format profile                           : Advanced Simple@L5
Format settings, BVOP                    : 1
Format settings, QPel                    : No
Format settings, GMC                     : No warppoints
Format settings, Matrix                  : Default (H.263)
Codec ID                                 : XVID
Codec ID/Hint                            : XviD
Duration                                 : 23mn 46s
Bit rate                                 : 1 422 Kbps
Width                                    : 608 pixels
Height                                   : 448 pixels
Display aspect ratio                     : 4:3
Frame rate                               : 29.970 fps
Color space                              : YUV
Chroma subsampling                       : 4:2:0
Bit depth                                : 8 bits
Scan type                                : Progressive
Compression mode                         : Lossy
Bits/(Pixel*Frame)                       : 0.174
Stream size                              : 242 MiB (93%)
Writing library                          : XviD 1.2.1 (UTC 2008-12-04)

Audio
ID                                       : 1
Format                                   : MPEG Audio
Format version                           : Version 1
Format profile                           : Layer 3
Mode                                     : Joint stereo
Mode extension                           : MS Stereo
Codec ID                                 : 55
Codec ID/Hint                            : MP3
Duration                                 : 17mn 5s
Source duration                          : 23mn 36s
Bit rate mode                            : Variable
Bit rate                                 : 91.8 Kbps
Channel(s)                               : 2 channels
Sampling rate                            : 48.0 KHz
Compression mode                         : Lossy
Stream size                              : 15.5 MiB (6%)
Alignment                                : Aligned on interleaves
Interleave, duration                     : 24 ms (0.72 video frame)

General
Complete name                            : Mandingo 3Mandingo.3.scene3.Katrina.Ko.avi
Format                                   : AVI
Format/Info                              : Audio Video Interleave
File size                                : 216 MiB
Duration                                 : 20mn 35s
Overall bit rate mode                    : Variable
Overall bit rate                         : 1 468 Kbps

Video
ID                                       : 0
Format                                   : MPEG-4 Visual
Format profile                           : Advanced Simple@L5
Format settings, BVOP                    : 1
Format settings, QPel                    : No
Format settings, GMC                     : No warppoints
Format settings, Matrix                  : Default (H.263)
Codec ID                                 : XVID
Codec ID/Hint                            : XviD
Duration                                 : 20mn 35s
Bit rate                                 : 1 362 Kbps
Width                                    : 608 pixels
Height                                   : 448 pixels
Display aspect ratio                     : 4:3
Frame rate                               : 29.970 fps
Color space                              : YUV
Chroma subsampling                       : 4:2:0
Bit depth                                : 8 bits
Scan type                                : Progressive
Compression mode                         : Lossy
Bits/(Pixel*Frame)                       : 0.167
Stream size                              : 201 MiB (93%)
Writing library                          : XviD 1.2.1 (UTC 2008-12-04)

Audio
ID                                       : 1
Format                                   : MPEG Audio
Format version                           : Version 1
Format profile                           : Layer 3
Mode                                     : Joint stereo
Mode extension                           : MS Stereo
Codec ID                                 : 55
Codec ID/Hint                            : MP3
Duration                                 : 14mn 48s
Source duration                          : 20mn 24s
Bit rate mode                            : Variable
Bit rate                                 : 91.8 Kbps
Channel(s)                               : 2 channels
Sampling rate                            : 48.0 KHz
Compression mode                         : Lossy
Stream size                              : 13.4 MiB (6%)
Alignment                                : Aligned on interleaves
Interleave, duration                     : 24 ms (0.72 video frame)
Writing library                          : LAME3.99.5

General
Complete name                            : Mandingo 3Mandingo.3.scene4.Honey.Comb.avi
Format                                   : AVI
Format/Info                              : Audio Video Interleave
File size                                : 525 MiB
Duration                                 : 40mn 28s
Overall bit rate mode                    : Variable
Overall bit rate                         : 1 815 Kbps

Video
ID                                       : 0
Format                                   : MPEG-4 Visual
Format profile                           : Advanced Simple@L5
Format settings, BVOP                    : 1
Format settings, QPel                    : No
Format settings, GMC                     : No warppoints
Format settings, Matrix                  : Default (H.263)
Codec ID                                 : XVID
Codec ID/Hint                            : XviD
Duration                                 : 40mn 28s
Bit rate                                 : 1 709 Kbps
Width                                    : 608 pixels
Height                                   : 448 pixels
Display aspect ratio                     : 4:3
Frame rate                               : 29.970 fps
Color space                              : YUV
Chroma subsampling                       : 4:2:0
Bit depth                                : 8 bits
Scan type                                : Progressive
Compression mode                         : Lossy
Bits/(Pixel*Frame)                       : 0.209
Stream size                              : 495 MiB (94%)
Writing library                          : XviD 1.2.1 (UTC 2008-12-04)

Audio
ID                                       : 1
Format                                   : MPEG Audio
Format version                           : Version 1
Format profile                           : Layer 3
Mode                                     : Joint stereo
Mode extension                           : MS Stereo
Codec ID                                 : 55
Codec ID/Hint                            : MP3
Duration                                 : 29mn 6s
Source duration                          : 40mn 3s
Bit rate mode                            : Variable
Bit rate                                 : 91.8 Kbps
Channel(s)                               : 2 channels
Sampling rate                            : 48.0 KHz
Compression mode                         : Lossy
Stream size                              : 26.3 MiB (5%)
Alignment                                : Aligned on interleaves
Interleave, duration                     : 24 ms (0.72 video frame)
Writing library                          : LAME3.99.5









Desciption of Mandingo 3
Category XXX movies
Genre       Anal       Gonzo       Hardcore      
Rating N/A
Size 1.40 GB
Show/Hide Files
10 files
AddDate 12/12/2012
Uploader xjock4ever23
Speed 0 KB/sec
Down 9 times
peers seeds: 6, leechers: 3 = 9 peers
Who thanks


No comments...