Torrent’s details
Name

[czechmegaswingers.com / czechav.com] Часть 8 (ролики 1, 2, 3, 4, 5)

Torrent
Info Hash 9600617e074adf2d06e0053ca649cbb3a458aa6e
Share with friends
Share |
Image 	[czechmegaswingers.com / czechav.com] Часть 8 (ролики 1, 2, 3, 4, 5)
Screenshots
	[czechmegaswingers.com / czechav.com] Часть 8 (ролики 1, 2, 3, 4, 5) Image1 	[czechmegaswingers.com / czechav.com] Часть 8 (ролики 1, 2, 3, 4, 5) Image2 	[czechmegaswingers.com / czechav.com] Часть 8 (ролики 1, 2, 3, 4, 5) Image3 	[czechmegaswingers.com / czechav.com] Часть 8 (ролики 1, 2, 3, 4, 5) Image4
	[czechmegaswingers.com / czechav.com] Часть 8 (ролики 1, 2, 3, 4, 5) Image5
Embed code
embed code for [czechmegaswingers.com / czechav.com] Часть 8 (ролики 1, 2, 3, 4, 5)
Description Охваченный временной промежуток: 2011
Подсайт и сайт: czechav.com - czechmegaswingers.com
Жанр: All sex, Orgy, group sex, all sex, Oral, Lesbo.
Формат видео: wmv
Количество роликов: 5

ОПИСАНИЕ:Check the greatest swingers party in the world. Dozens of amateur videos of the most beautiful czech girls and women are waiting for you. This action has no script and runs completely natural and wild. You can enjoy the real group sex which you cannot see in the entire universe. You bet!

ОПИСАНИЕ:The unbelievable group sex with czech amateurs continues.We assure you that you will not find anything like this anywhere in the world. An absolutely authentic swingers action full of group fucking and dozens of amateur couples with the prettiest young to the beautiful mature women. Enjoy this unbelievable show.

ОПИСАНИЕ:Another massive porn swinger action which has no parallel in the world. You will find a wide variety of people of all ages. Enjoy this hardcore group sex which you can not find anywhere in the universe. Czech mega swingers action full of unbelievable fucking is the reality. Noone else can offer you anything like that, you can count on that!

ОПИСАНИЕ:You're watching true and authentic swingers action full of amateur couples with the prettiest young to the beautiful mature women.This action has no script and runs completely natural and wild. In this amazing movie you will see more than 70 czech amateurs in action.
This is a true czech megaswingersaction loaded with raw sex. Enjoy it!

ОПИСАНИЕ:Watch the greatest swingers action of all time. You will find here an unbelievable spectacle of dozens horny pairs enjoying raw and wild sex. dozens of beautiful women are waiting for you in autenthing and 100% natural videos. This is the biggest swingers action on the planet. You can find anything like this anywhere on the web, see for youselves!

Format : Windows Media
File size : 568 MB
Duration : 37mn 57s
Overall bit rate mode : Constant
Overall bit rate : 2 093 Kbps
Maximum Overall bit rate : 2 115 Kbps
Encoded date : UTC 2011-03-09 12:33:23.762
Video #1
ID : 1
Format : VC-1
Format profile : MP@HL
Codec ID : WMV3
Codec ID/Info : Windows Media Video 9
Codec ID/Hint : WMV3
Description of the codec : Windows Media Video 9 - Professional
Duration : 37mn 57s
Bit rate mode : Constant
Bit rate : 2 000 Kbps
Width : 1 280 pixels
Height : 720 pixels
Display aspect ratio : 16:9
Frame rate : 25.000 fps
Bit depth : 8 bits
Scan type : Progressive
Bits/(Pixel*Frame) : 0.087
Stream size : 543 MiB (96%)
Language : Czech
Audio #2
ID : 2
Format : WMA
Format version : Version 2
Codec ID : 161
Codec ID/Info : Windows Media Audio
Description of the codec : Windows Media Audio 9.2 - 96 kbps, 48 kHz, stereo 1-pass CBR
Duration : 37mn 57s
Bit rate mode : Constant
Bit rate : 96.0 Kbps
Channel(s) : 2 channels
Sampling rate : 48.0 KHz
Bit depth : 16 bits
Stream size : 26.1 MiB (5%)
Language : Czech
Desciption of [czechmegaswingers.com / czechav.com] Часть 8 (ролики 1, 2, 3, 4, 5)
Category XXX movies - HD
Genre       Amateur       Orgy (Group)      
Rating N/A
Size 2.91 GB
Show/Hide Files
10 files
AddDate 01/06/2012
Uploader armagedon
Speed 0 KB/sec
Down 1 times
peers seeds: 5, leechers: 4 = 9 peers
Who thanks


No comments...