Torrent’s details
Name

[DigitalDesire.com / DDGirls.com] - March, 2011-03 x 9 клипов [1280x720]

Torrent
Info Hash 96c721ab83b04156a1c44b8c6da56f22e8212008
Share with friends
Share |
Image [DigitalDesire.com / DDGirls.com] - March, 2011-03 x 9 клипов [1280x720]
Screenshots
Embed code
embed code for [DigitalDesire.com / DDGirls.com] - March, 2011-03 x 9 клипов [1280x720]
Description







Представляют Модели: Arianna Armani, Cami Parker, Kimberly Gates, Layla Rose, Hayden Winters, Brea Bennett, Conny Lior, Layla Rivera, Talia Palmer

2011-03-04 - Arianna Armani _111000_6-vid-720-h264.m4v
2011-03-09 - Cami Parker _111278_6-vid-720-h264.m4v
2011-03-11 - Kimberly Gates _111328_6-vid-720-h264.m4v
2011-03-16 - Layla Rose _111426_6-vid-720-h264.m4v
2011-03-18 - Hayden Winters _111404_6-vid-720-h264.m4v
2011-03-24 - Brea Bennett _110573_6-vid-480-h264.m4v
2011-03-25 - Conny Lior _111219_6-vid-720-h264.m4v
2011-03-27 - Layla Rivera _110560_6-vid-480-h264.m4v
2011-03-31 - Talia Palmer _111432_6-vid-720-h264.m4v

Формат : MPEG-4
Идентификатор кодека : M4V
Размер файла : 237 Мбайт
Продолжительность : 10 м.
Общий поток : 3100 Кбит/сек

Видео
Идентификатор : 1
Формат : AVC
Формат/Информация : Advanced Video Codec
Профиль формата : High@L4.0
Параметр CABAC формата : Да
Параметр ReFrames формата : 8 кадры
Идентификатор кодека : avc1
Идентификатор кодека/Информация : Advanced Video Coding
Продолжительность : 10 м.
Вид битрейта : Переменный
Битрейт : 2966 Кбит/сек
Ширина : 1280 пикс.
Высота : 720 пикс.
Соотношение сторон : 16:9
Режим частоты кадров : Постоянный
Частота кадров : 29,970 кадр/сек
Цветовое пространство : YUV
Подвыборка цветности : 4:2:0
Битовая глубина : 8 бит
Тип развёртки : Прогрессивная
Бит/(Пиксели*Кадры) : 0.107
Размер потока : 227 Мбайт (96%)

Аудио
Идентификатор : 2
Формат : AAC
Формат/Информация : Advanced Audio Codec
Профиль формата : LC
Идентификатор кодека : 40
Продолжительность : 10 м.
Вид битрейта : Переменный
Битрейт : 128 Кбит/сек
Канал(ы) : 2 канала(ов)
Расположение каналов : Front: L R
Частота : 44,1 КГц
Метод сжатия : С потерями
Размер потока : 9,77 Мбайт (4%)
Desciption of [DigitalDesire.com / DDGirls.com] - March, 2011-03 x 9 клипов [1280x720]
Category XXX movies - HD
Genre       Masturbation      
Rating
Size 1.49 GB
Show/Hide Files
27 files
AddDate 16/05/2011
Uploader armagedon
Speed 0 KB/sec
Down 11 times
peers seeds: 3, leechers: 2 = 5 peers
Who thanks


s6ekspir 16/05/2011 22.15.48
моята любимка Hayden Winters е тук - трябва да го сваляsmile1.gif