Torrent’s details
Name

MyWifesHotFriend.com - Angelica Saige

Torrent
Info Hash 9814185a4a34e911fa207067d9e813759b58e2a0
Share with friends
Share |
Image  MyWifesHotFriend.com - Angelica Saige
Screenshots
Embed code
embed code for MyWifesHotFriend.com - Angelica Saige
Description General
Complete name                            : mwhfangelica.mp4
Format                                   : MPEG-4
Format profile                           : Base Media
Codec ID                                 : isom
File size                                : 315 MiB
Duration                                 : 28mn 37s
Overall bit rate                         : 1 536 Kbps
Encoded date                             : UTC 2012-06-18 18:40:48
Tagged date                              : UTC 2012-06-18 18:40:48
Writing application                      : Lavf53.32.100

Video
ID                                       : 1
Format                                   : AVC
Format/Info                              : Advanced Video Codec
Format profile                           : High@L3.0
Format settings, CABAC                   : Yes
Format settings, ReFrames                : 4 frames
Codec ID                                 : avc1
Codec ID/Info                            : Advanced Video Coding
Duration                                 : 28mn 37s
Bit rate                                 : 1 400 Kbps
Width                                    : 854 pixels
Height                                   : 480 pixels
Display aspect ratio                     : 16:9
Frame rate mode                          : Constant
Frame rate                               : 30.000 fps
Color space                              : YUV
Chroma subsampling                       : 4:2:0
Bit depth                                : 8 bits
Scan type                                : Progressive
Bits/(Pixel*Frame)                       : 0.114
Stream size                              : 287 MiB (91%)
Writing library                          : x264 core 120

Encoded date                             : UTC 2012-06-18 18:40:48
Tagged date                              : UTC 2012-06-18 18:40:48

Audio
ID                                       : 2
Format                                   : AAC
Format/Info                              : Advanced Audio Codec
Format profile                           : LC
Codec ID                                 : 40
Duration                                 : 28mn 37s
Bit rate mode                            : Constant
Bit rate                                 : 128 Kbps
Channel(s)                               : 2 channels
Channel positions                        : Front: L R
Sampling rate                            : 44.1 KHz
Compression mode                         : Lossy
Delay relative to video                  : -2ms
Stream size                              : 26.1 MiB (8%)
Language                                 : English
Encoded date                             : UTC 2012-06-18 18:40:48
Tagged date                              : UTC 2012-06-18 18:40:48

                           





Desciption of MyWifesHotFriend.com - Angelica Saige
Category XXX movies
Genre       Hardcore      
Rating N/A
Size 314.62 MB
Show/Hide Files
1 file
AddDate 21/06/2012
Uploader
Speed 0 KB/sec
Down 2 times
peers seeds: 0, leechers: 0 = 0 peers
Who thanks


No comments...