Torrent’s details
Name

Nikita XXX

Torrent
Info Hash 98c0ccfb944f4ce7d1f4a3712f2259578349e2b0
Share with friends
Share |
Image Nikita XXX
Screenshots
Embed code
embed code for Nikita XXX
Description


General
Complete name: D:  Downloads  Nikita XXX  scene1.mp4
Format: MPEG-4
Format profile: Base Media
Codec ID: ISOM
File Size: 323 MiB
Duration: 26 minutes
Overall bit rate: 1 718 Kbps
Encoded date: UTC 2013-03-22 15:56:44
Tagged date: UTC 2013-03-22 15:56:44

Picture
ID: 1
Format: AVC
Format / Info: Advanced Video Codec
Format profile: High@L3.0
Format settings, CABAC: Yes
Format settings, ReFrames: 4 frames
Codec ID: avc1
Codec ID / Info: Advanced Video Coding
Duration: 26 minutes
Bit rate: 1 585 Kbps
Width: 720 pixels
Height: 404 pixels
Aspect Ratio: 16:9
Frame rate mode: Variable
Frame rate: 23.976 fps
Minimum frame rate: 14.985 fps
Maximum frame rate: 29.970 fps
Color space: YUV
Chroma: 4:2:0
Resolution / String: 8 bits
Scan type: Progressive
Bits / (Pixel * Frame): 0.227
Stream size: 298 MiB (92%)
Tagged date: UTC 2013-03-22 15:58:42

Sound
ID: 2
Format: AAC
Format / Info: Advanced Audio Codec
Format profile: LC
Codec ID: 40
Duration: 26 minutes
Bit rate mode: Variable
Bit rate: 128 Kbps
Number of channels: 2 channels
Channel positions: Front: LR
Sampling rate: 48.0 KHz
Stream size: 24.1 MiB (7%)
Tagged date: UTC 2013-03-22 15:58:42




General
Complete name: D:  Downloads  Nikita XXX  scene2.mp4
Format: MPEG-4
Format profile: Base Media
Codec ID: ISOM
File Size: 253 MiB
Duration: 15 minutes
Overall bit rate: 2 271 Kbps
Encoded date: UTC 2013-03-22 16:05:20
Tagged date: UTC 2013-03-22 16:05:20

Picture
ID: 1
Format: AVC
Format / Info: Advanced Video Codec
Format profile: High@L3.0
Format settings, CABAC: Yes
Format settings, ReFrames: 4 frames
Codec ID: avc1
Codec ID / Info: Advanced Video Coding
Duration: 15 minutes
Bit rate: 2139 Kbps
Width: 720 pixels
Height: 404 pixels
Aspect Ratio: 16:9
Frame rate mode: Variable
Frame rate: 23.976 fps
Minimum frame rate: 14.985 fps
Maximum frame rate: 29.970 fps
Color space: YUV
Chroma: 4:2:0
Resolution / String: 8 bits
Scan type: Progressive
Bits / (Pixel * Frame): 0,307
Stream size: 238 MiB (94%)
Tagged date: UTC 2013-03-22 16:06:11

Sound
ID: 2
Format: AAC
Format / Info: Advanced Audio Codec
Format profile: LC
Codec ID: 40
Duration: 15 minutes
Bit rate mode: Variable
Bit rate: 128 Kbps
Number of channels: 2 channels
Channel positions: Front: LR
Sampling rate: 48.0 KHz
Stream size: 14.2 MiB (6%)
Tagged date: UTC 2013-03-22 16:06:11




General
Complete name: D:  Downloads  Nikita XXX  scene3.mp4
Format: MPEG-4
Format profile: Base Media
Codec ID: ISOM
File Size: 267 MiB
Duration: 21 minutes
Overall bit rate: 1 767 Kbps
Encoded date: UTC 2013-03-22 16:21:30
Tagged date: UTC 2013-03-22 16:21:30

Picture
ID: 1
Format: AVC
Format / Info: Advanced Video Codec
Format profile: High@L3.0
Format settings, CABAC: Yes
Format settings, ReFrames: 4 frames
Codec ID: avc1
Codec ID / Info: Advanced Video Coding
Duration: 21 minutes
Bit rate: 1 634 Kbps
Width: 720 pixels
Height: 404 pixels
Aspect Ratio: 16:9
Frame rate mode: Variable
Frame rate: 23.976 fps
Minimum frame rate: 14.985 fps
Maximum frame rate: 29.970 fps
Color space: YUV
Chroma: 4:2:0
Resolution / String: 8 bits
Scan type: Progressive
Bits / (Pixel * Frame): 0.234
Stream size: 247 MiB (92%)
Tagged date: UTC 2013-03-22 16:22:42

Sound
ID: 2
Format: AAC
Format / Info: Advanced Audio Codec
Format profile: LC
Codec ID: 40
Duration: 21 minutes
Bit rate mode: Variable
Bit rate: 128 Kbps
Number of channels: 2 channels
Channel positions: Front: LR
Sampling rate: 48.0 KHz
Stream size: 19.3 MiB (7%)
Tagged date: UTC 2013-03-22 16:22:42




General
Complete name: D:  Downloads  Nikita XXX  scene4.mp4
Format: MPEG-4
Format profile: Base Media
Codec ID: ISOM
File Size: 304 MiB
Duration: 24 minutes
Overall bit rate: 1 756 Kbps
Encoded date: UTC 2013-03-22 16:24:02
Tagged date: UTC 2013-03-22 16:24:02

Picture
ID: 1
Format: AVC
Format / Info: Advanced Video Codec
Format profile: High@L3.0
Format settings, CABAC: Yes
Format settings, ReFrames: 4 frames
Codec ID: avc1
Codec ID / Info: Advanced Video Coding
Duration: 24 minutes
Bit rate: 1 623 Kbps
Width: 720 pixels
Height: 404 pixels
Aspect Ratio: 16:9
Frame rate mode: Variable
Frame rate: 23.976 fps
Minimum frame rate: 14.985 fps
Maximum frame rate: 29.970 fps
Color space: YUV
Chroma: 4:2:0
Resolution / String: 8 bits
Scan type: Progressive
Bits / (Pixel * Frame): 0.233
Stream size: 281 MiB (92%)
Tagged date: UTC 2013-03-22 16:25:14

Sound
ID: 2
Format: AAC
Format / Info: Advanced Audio Codec
Format profile: LC
Codec ID: 40
Duration: 24 minutes
Bit rate mode: Variable
Bit rate: 128 Kbps
Number of channels: 2 channels
Channel positions: Front: LR
Sampling rate: 48.0 KHz
Stream size: 22.2 MiB (7%)
Tagged date: UTC 2013-03-22 16:25:14




General
Complete name: D:  Downloads  Nikita XXX  scene5.mp4
Format: MPEG-4
Format profile: Base Media
Codec ID: ISOM
File Size: 322 MiB
Duration: 25 minutes
Overall bit rate: 1 744 Kbps
Encoded date: UTC 2013-03-22 16:27:25
Tagged date: UTC 2013-03-22 16:27:25

Picture
ID: 1
Format: AVC
Format / Info: Advanced Video Codec
Format profile: High@L3.0
Format settings, CABAC: Yes
Format settings, ReFrames: 4 frames
Codec ID: avc1
Codec ID / Info: Advanced Video Coding
Duration: 25 minutes
Bit rate: 1 612 Kbps
Width: 720 pixels
Height: 404 pixels
Aspect Ratio: 16:9
Frame rate mode: Variable
Frame rate: 23.976 fps
Minimum frame rate: 14.985 fps
Maximum frame rate: 29.970 fps
Color space: YUV
Chroma: 4:2:0
Resolution / String: 8 bits
Scan type: Progressive
Bits / (Pixel * Frame): 0.231
Stream size: 297 MiB (92%)
Tagged date: UTC 2013-03-22 16:28:26

Sound
ID: 2
Format: AAC
Format / Info: Advanced Audio Codec
Format profile: LC
Codec ID: 40
Duration: 25 minutes
Bit rate mode: Variable
Bit rate: 128 Kbps
Number of channels: 2 channels
Channel positions: Front: LR
Sampling rate: 48.0 KHz
Stream size: 23.6 MiB (7%)
Tagged date: UTC 2013-03-22 16:28:26




General
Complete name: D:  Downloads  Nikita XXX  scene6.mp4
Format: MPEG-4
Format profile: Base Media
Codec ID: ISOM
File Size: 263 MiB
Duration: 22 minutes
Overall bit rate: 1 602 Kbps
Encoded date: UTC 2013-03-22 16:30:20
Tagged date: UTC 2013-03-22 16:30:20

Picture
ID: 1
Format: AVC
Format / Info: Advanced Video Codec
Format profile: High@L3.0
Format settings, CABAC: Yes
Format settings, ReFrames: 4 frames
Codec ID: avc1
Codec ID / Info: Advanced Video Coding
Duration: 22 minutes
Bit rate: 1 470 Kbps
Width: 720 pixels
Height: 404 pixels
Aspect Ratio: 16:9
Frame rate mode: Variable
Frame rate: 23.976 fps
Minimum frame rate: 14.985 fps
Maximum frame rate: 29.970 fps
Color space: YUV
Chroma: 4:2:0
Resolution / String: 8 bits
Scan type: Progressive
Bits / (Pixel * Frame): 0,211
Stream size: 241 MiB (92%)
Tagged date: UTC 2013-03-22 16:31:28

Sound
ID: 2
Format: AAC
Format / Info: Advanced Audio Codec
Format profile: LC
Codec ID: 40
Duration: 22 minutes
Bit rate mode: Variable
Bit rate: 128 Kbps
Number of channels: 2 channels
Channel positions: Front: LR
Sampling rate: 48.0 KHz
Stream size: 21.0 MiB (8%)
Tagged date: UTC 2013-03-22 16:31:28







Desciption of Nikita XXX
Category XXX movies
Genre       Anal       Teen      
Rating N/A
Size 1.69 GB
Show/Hide Files
6 files
AddDate 10/04/2013
Uploader xjock4ever23
Speed 0 KB/sec
Down 7 times
peers seeds: 5, leechers: 4 = 9 peers
Who thanks


No comments...