Torrent’s details
Name

Claire - Pornochic 23 / Порношик 23 (Marc Dorcel) (2012) VOD

Torrent
Info Hash 9aec6b8aee842b0d32383429b0b3668cd5658a8c
Share with friends
Share |
Image Claire - Pornochic 23 / Порношик 23 (Marc Dorcel) (2012) VOD
Screenshots
Claire - Pornochic 23 / Порношик 23 (Marc Dorcel) (2012) VOD Image1 Claire - Pornochic 23 / Порношик 23 (Marc Dorcel) (2012) VOD Image2 Claire - Pornochic 23 / Порношик 23 (Marc Dorcel) (2012) VOD Image3 Claire - Pornochic 23 / Порношик 23 (Marc Dorcel) (2012) VOD Image4
Claire - Pornochic 23 / Порношик 23 (Marc Dorcel) (2012) VOD Image5 Claire - Pornochic 23 / Порношик 23 (Marc Dorcel) (2012) VOD Image6 Claire - Pornochic 23 / Порношик 23 (Marc Dorcel) (2012) VOD Image7 Claire - Pornochic 23 / Порношик 23 (Marc Dorcel) (2012) VOD Image8
Embed code
embed code for Claire - Pornochic 23 / Порношик 23 (Marc Dorcel) (2012) VOD
Description Год производства: 2012 г.
Страна: FR
Жанр: anal,oral,DP
Продолжительность: 78 min
Режиссер: Hervé Bodilis
Студия: Marc Dorcel
В ролях: Aleska Diamond, Black Angelika, Claire Castel, Liza Del Sierra, Anissa Kate, Alex., Ian Scott, J.P.X, James Brossman, Leny Ewil, Math, Michael Cheritto

Описание:
Résumé du film Pornochic 23 - Claire Castel
Simplement vêtue d’une jolie lingerie fine et de chaussures à talon, la superbe Claire Castel se fait bander les yeux. Ce soir, son pervers de mec lui a réservé une magnifique surprise : une brune très chaude aux nichons de rêve qui va offrir chacun de ses orifices comme jamais elle ne l’avait fait jusque-là. Au comble de l’orgasme, Claire décide de rendre la pareille à son amant : dès le lendemain, elle qui lui réserve une surprise scandaleuse au cours de laquelle, dans un somptueux appartement bourgeois, le sperme coulera littéralement à flot
Доп. информация: Studio: Marc Dorcel

Quality: VODRip
Size: 1,02 GB
Duration: 78 min
Resolution: 960x544
6 Scenes
Bit rate : 1 706 Kbps
Width : 960 pixels
Height : 544 pixels
Display aspect ratio : 16:9
Frame rate : 25.000 fps
Color space : YUV
Chroma subsampling : 4:2:0
Bit depth : 8 bits

Scan type : Progressive
Compression mode : Lossy
Bits/(Pixel*Frame) : 0.131
Stream size : 156 MiB (89%)
Writing library : ZJMedia MPEG Encoder
audio:
Bit rate : 192 Kbps
Channel(s) : 2 channels
Channel positions : Front: L R
Sampling rate : 48.0 KHz
Bit depth : 16 bits

Compression mode : Lossy
Stream size : 15.8 MiB (10%)
Alignment : Aligned on interleaves
Interleave, duration : 32 ms (0.80 video frame)
Interleave, preload duration : 512 ms
http://www.xstarsnews.com/pornochic-claire-12054.html

Качество видео: VOD
Формат видео: AVI
Видео: 960x544
Аудио: Dolby AC3 48000Hz stereo 192Kbps [Audio 1]

Desciption of Claire - Pornochic 23 / Порношик 23 (Marc Dorcel) (2012) VOD
Category XXX movies
Genre       Anal      
Rating
Size 1.01 GB
Show/Hide Files
7 files
AddDate 15/07/2012
Uploader s6ekspir
Speed 0 KB/sec
Down 11 times
peers seeds: 9, leechers: 1 = 10 peers
Who thanks


No comments...