Torrent’s details
Name

[czechmegaswingers.com / czechav.com] CZECH MEGA SWINGERS 11 - PART 1,2,3,4

Torrent
Info Hash a388f94a060d47ab448051538b10309ff18d84dd
Share with friends
Share |
Image [czechmegaswingers.com / czechav.com] CZECH MEGA SWINGERS 11 - PART 1,2,3,4
Screenshots
[czechmegaswingers.com / czechav.com] CZECH MEGA SWINGERS 11 - PART 1,2,3,4 Image1 [czechmegaswingers.com / czechav.com] CZECH MEGA SWINGERS 11 - PART 1,2,3,4 Image2 [czechmegaswingers.com / czechav.com] CZECH MEGA SWINGERS 11 - PART 1,2,3,4 Image3 [czechmegaswingers.com / czechav.com] CZECH MEGA SWINGERS 11 - PART 1,2,3,4 Image4
Embed code
embed code for [czechmegaswingers.com / czechav.com] CZECH MEGA SWINGERS 11 - PART 1,2,3,4
Description Подсайт и сайт: czechmegaswingers.com / czechav.com
Год производства: 2011 г.
Жанр: All Sex, Amateur, Blowjob, Facial, Orgy, POV
Количество роликов: 4

Описание: More than 50 pairs of beautiful Czech amateurs got together to indulge in the wildest and largest alcohol-fueled orgy ever. Most of them manage to share more than three partners during the evening and a few of the girls reveal that they're into some very kinky stuff. As always, we guarantee these are real amateurs doing whatever they want, without any script at all. This is reality!

Формат видео: WMV
Видео кодек: Windows Media
Аудио кодек: WMA
Полное имя                       : D:CZECH MEGA SWINGERS 11CZECH MEGA SWINGERS 11 - PART 1.wmv
Формат                           : Windows Media
Размер файла                     : 953 Мбайт
Продолжительность                : 42 м.
Режим общего битрейта            : Постоянный
Общий поток                      : 3146 Кбит/сек
Максимальный общий битрейт       : 3163 Кбит/сек
Дата кодирования                 : UTC 2011-10-14 09:49:14.400

Видео
Идентификатор                    : 2
Формат                           : VC-1
Профиль формата                  : MP@HL
Идентификатор кодека             : WMV3
Идентификатор кодека/Информация  : Windows Media Video 9
Идентификатор кодека/Подсказка   : WMV3
Описание кодека                  : Windows Media Video 9 - Professional
Продолжительность                : 42 м.
Вид битрейта                     : Постоянный
Битрейт                          : 3072 Кбит/сек
Ширина                           : 1280 пикселей
Высота                           : 720 пикселей
Соотношение сторон               : 16:9
Частота кадров                   : 25,000 кадров/сек
Битовая глубина                  : 8 бит
Тип развёртки                    : Прогрессивная
Метод сжатия                     : С потерями
Бит/(Пиксели*Кадры)              : 0.133
Размер потока                    : 931 Мбайт (98%)
Язык                             : Czech

Аудио
Идентификатор                    : 1
Формат                           : WMA
Версия формата                   : Version 2
Идентификатор кодека             : 161
Идентификатор кодека/Информация  : Windows Media Audio
Описание кодека                  : Windows Media Audio 9.2 -  64 kbps, 44 kHz, stereo (A/V) 1-pass CBR
Продолжительность                : 42 м.
Вид битрейта                     : Постоянный
Битрейт                          : 64,0 Кбит/сек
Каналы                           : 2 канала
Частота                          : 44,1 КГц
Битовая глубина                  : 16 бит
Размер потока                    : 19,4 Мбайт (2%)
Язык                             : Czech
Desciption of [czechmegaswingers.com / czechav.com] CZECH MEGA SWINGERS 11 - PART 1,2,3,4
Category XXX movies - HD
Genre       Amateur       Orgy (Group)      
Rating N/A
Size 3.00 GB
Show/Hide Files
4 files
AddDate 01/06/2012
Uploader armagedon
Speed 0 KB/sec
Down 6 times
peers seeds: 9, leechers: 2 = 11 peers
Who thanks


No comments...