Torrent’s details
Name

Twisted.Midgets.3.WEB-DL.WMV-MoWSeRS

Torrent
Info Hash a617d4cc8c1a01f94140ac87b62a450c04b75e21
Share with friends
Share |
Image Twisted.Midgets.3.WEB-DL.WMV-MoWSeRS
Screenshots
Twisted.Midgets.3.WEB-DL.WMV-MoWSeRS Image1 Twisted.Midgets.3.WEB-DL.WMV-MoWSeRS Image2 Twisted.Midgets.3.WEB-DL.WMV-MoWSeRS Image3 Twisted.Midgets.3.WEB-DL.WMV-MoWSeRS Image4
Twisted.Midgets.3.WEB-DL.WMV-MoWSeRS Image5
Embed code
embed code for Twisted.Midgets.3.WEB-DL.WMV-MoWSeRS
Description Twisted Midgets 3

SERIE : Twisted Midgets

STUDIO : Filmco

CATEGORIES :  Fetish, Hardcore

PORNSTAR :

Bridget The Midget
Dynamite
Gidget The Midget
Tinnie Tyler

DESCRIPTION :

Who doesn't love a horny midget sluts with HUGE appetites for cum? Our lil' girls make the most of their miniature titties and their petite little asses. If you enjoy watching hot mini-chicks, taking full size loads up their pussies and across their faces, you'll love our Twisted Midgets!


Format  : Windows Media

File size   : 248 MiB

Duration   : 16mn 28s

Overall bit rate mode   : Constant

Overall bit rate  : 2 106 Kbps

Maximum Overall bit rate  : 2 116 Kbps

Encoded date  : UTC 2006-02-09 00:16:18.406

Video

ID  : 2

Format  : VC-1

Format profile  : MP@ML

Codec ID  : WMV3

Codec ID/Info : Windows Media Video 9

Codec ID/Hint  : WMV3

Description of the codec : Windows Media Video 9 - Professional

Duration  : 16mn 28s

Bit rate mode  : Constant

Bit rate  : 2 000 Kbps

Width  : 720 pixels

Height  : 528 pixels

Display aspect ratio  : 4:3

Frame rate  : 29.970 fps

Bit depth  : 8 bits

Scan type  : Progressive

Compression mode : Lossy

Bits/(Pixel*Frame) : 0.176

Stream size  : 236 MiB (95%)

Language  : English

NumberOfFrames  : 29617

Audio

ID  : 1

Format  : WMA

Format version  : Version 2

Codec ID  : 161

Codec ID/Info  : Windows Media Audio

Description of the codec  : Windows Media Audio 9.1 -  96 kbps, 44 kHz, stereo 1-pass CBR

Duration  : 16mn 28s

Bit rate mode  : Constant

Bit rate  : 96.0 Kbps

Channel(s)  : 2 channels

Sampling rate  : 44.1 KHz

Bit depth : 16 bits

Stream size  : 11.3 MiB (5%)

Language  : English

Number Of Frames  : 2662

ENJOY !!!
Desciption of Twisted.Midgets.3.WEB-DL.WMV-MoWSeRS
Category XXX movies
Genre       Fetish      
Rating N/A
Size 1.33 GB
Show/Hide Files
10 files
AddDate 25/10/2012
Uploader SKIDMARKS
Speed 0 KB/sec
Down 36 times
peers seeds: 0, leechers: 0 = 0 peers
Who thanks


s6ekspir 25/10/2012 08.46.44