Torrent’s details
Name

Asian Escort Service Spycams [39 videos] «Pack»

Torrent
Info Hash a722839fde48936d3aa0a65fa6b497128e4591d1
Share with friends
Share |
Image Asian Escort Service Spycams [39 videos] «Pack»
Screenshots
Embed code
embed code for Asian Escort Service Spycams [39 videos] «Pack»
Description Format : MPEG-4
Format profile : Base Media
Codec ID : isom
File size : 4.36 GiB
Duration : 1h 59mn
Overall bit rate mode : Constant
Overall bit rate : 5 209 Kbps
Encoded date : UTC 2013-04-25 11:58:17
Tagged date : UTC 2013-04-25 11:58:17
Video #1
ID : 1
Format : AVC
Format/Info : Advanced Video Codec
Format profile : High@L3.1
Format settings, CABAC : No
Format settings, ReFrames : 1 frame
Format settings, GOP : M=1, N=33
Codec ID : avc1
Codec ID/Info : Advanced Video Coding
Duration : 1h 59mn
Source duration : 1h 59mn
Bit rate mode : Constant
Bit rate : 5 015 Kbps
Width : 1 280 pixels
Height : 720 pixels
Display aspect ratio : 16:9
Frame rate mode : Constant
Frame rate : 29.970 fps
Standard : NTSC
Color space : YUV
Chroma subsampling : 4:2:0
Bit depth : 8 bits
Scan type : Progressive
Bits/(Pixel*Frame) : 0.182
Stream size : 4.02 GiB (92%)
Source stream size : 4.20 GiB (96%)
Language : English
Encoded date : UTC 2013-04-25 11:58:17
Tagged date : UTC 2013-04-25 11:58:17
mdhd_Duration : 7178322
Color primaries : BT.709
Transfer characteristics : BT.709
Matrix coefficients : BT.709
Audio #2
ID : 2
Format : AAC
Format/Info : Advanced Audio Codec
Format profile : LC
Codec ID : 40
Duration : 1h 59mn
Bit rate mode : Constant
Bit rate : 192 Kbps
Channel(s) : 2 channels
Channel positions : Front: L R
Sampling rate : 48.0 KHz
Compression mode : Lossy
Stream size : 164 MiB (4%)
Language : English
Encoded date : UTC 2013-04-25 11:58:17
Tagged date : UTC 2013-04-25 11:58:17
mdhd_Duration : 7204580

Desciption of Asian Escort Service Spycams [39 videos] «Pack»
Category XXX movies - HD
Genre       Asian       Pack      
Rating
Size 69.01 GB
Show/Hide Files
102 files
AddDate 11/05/2013
Uploader armagedon
Speed 0 KB/sec
Down 5 times
peers seeds: 8, leechers: 4 = 12 peers
Who thanks


No comments...