Torrent’s details
Name

Tonight's girlfriend

Torrent
Info Hash acae23ea3f770673895d3e90585c33b1205537c2
Share with friends
Share |
Screenshots
Tonight's girlfriend Image1 Tonight's girlfriend Image3
Tonight's girlfriend Image5
Embed code
embed code for Tonight's girlfriend
Description Format                         : MPEG-4
Format profile                 : Base Media / Version 2
Codec ID                       : mp42
File size                      : 7.97 MiB
Duration                       : 41mn 11s
Overall bit rate mode          : Variable
Overall bit rate               : 27.0 Kbps
Encoded date                   : UTC 2011-09-09 20:00:16
Tagged date                    : UTC 2011-09-09 20:00:16
©TIM                           : 00:00:00:00
©TSC                           : 24000
©TSZ                           : 1001

Video
ID                             : 1
Format                         : AVC
Format/Info                    : Advanced Video Codec
Format profile                 : Main@L4.2
Format settings, CABAC         : Yes
Format settings, ReFrames      : 3 frames
Format settings, GOP           : M=4, N=10
Codec ID                       : avc1
Codec ID/Info                  : Advanced Video Coding
Duration                       : 41mn 11s
Bit rate mode                  : Constant
Bit rate                       : 3 600 Kbps
Width                          : 1 920 pixels
Height                         : 1 080 pixels
Display aspect ratio           : 16:9
Frame rate mode                : Constant
Frame rate                     : 23.976 fps
Standard                       : NTSC
Color space                    : YUV
Chroma subsampling             : 4:2:0
Bit depth                      : 8 bits
Scan type                      : Progressive
Bits/(Pixel*Frame)             : 0.072
Stream size                    : 1.03 GiB
Language                       : English
Encoded date                   : UTC 2011-09-09 20:00:16
Tagged date                    : UTC 2011-09-09 20:00:16

Audio
ID                             : 2
Format                         : AAC
Format/Info                    : Advanced Audio Codec
Format profile                 : LC
Codec ID                       : 40
Duration                       : 41mn 11s
Bit rate mode                  : Variable
Bit rate                       : 157 Kbps
Maximum bit rate               : 209 Kbps
Channel(s)                     : 2 channels
Channel positions              : Front: L R
Sampling rate                  : 48.0 KHz
Compression mode               : Lossy
Stream size                    : 46.4 MiB
Language                       : English
Encoded date                   : UTC 2011-09-09 20:00:16
Tagged date                    : UTC 2011-09-09 20:00:16
Material_Duration              : 2472021
Material_StreamSize            : 48629295

44.13 GB
Desciption of Tonight's girlfriend
Category XXX movies
Genre       All Girls      
Rating
Size 44.13 GB
Show/Hide Files
58 files
AddDate 06/06/2012
Uploader scare
Speed 0 KB/sec
Down 16 times
peers seeds: 0, leechers: 0 = 0 peers
Who thanks


No comments...