Torrent’s details
Name

Stick It

Torrent
Info Hash ad74294bab106f334d8d6bb778924108e8d07484
Share with friends
Share |
Image  Stick It
Screenshots
Embed code
embed code for Stick It
Description

General
Complete name: C:  Users  Pista  Downloads  stick-it-scene1.avi
Format: AVI
Format / Info: Audio Video Interleave
File Size: 290 MiB
Duration: 24 minutes
Overall bit rate mode: Variable
Overall bit rate: 1 661 Kbps
Writing application: MEncoder 1.0rc1-4.1.2
Writing library: MPlayer

Picture
ID: 0
Format: MPEG-4 Visual
Format profile: Advanced Simple @ L5
Format settings, BVOP: 2
Format settings, QPel: No
Format settings, GMC: No warppoints 0
Format settings, Matrix: Default (H.263)
Codec ID: XVID
Codec ID / Hint: XviD
Duration: 24 minutes
Bit rate: 1 583 Kbps
Width: 640 pixels
Height: 480 pixels
Aspect Ratio: 4:3
Frame rate: 30.303 fps
Color space: YUV
Chroma: 4:2:0
Resolution / String: 8 bits
Scan type: Progressive
Bits / (Pixel * Frame): 0,170
Stream size: 276 MiB (95%)
Writing library: XviD 1.1.0 (UTC 2005-11-22)

Sound
ID: 1
Format: MPEG Audio
Format version: Version 1
Format profile: Layer 3
Format_Settings_ModeExtension: Joint stereo
Format_Settings_ModeExtension: MS Stereo
Codec ID: 55
Codec ID / Hint: MP3
Duration: 22 minutes
Bit rate mode: Variable
Bit rate: 69.2 Kbps
Number of channels: 2 channels
Sampling rate: 48.0 KHz
Stream size: 11.2 MiB (4%)
Alignment:
Interleave, duration: 26 ms (0.78 video frame)
Interleave, preload duration: 438 ms

General
Complete name: C:  Users  Pista  Downloads  stick-it-scene2.avi
Format: AVI
Format / Info: Audio Video Interleave
File Size: 263 MiB
Duration: 22 minutes
Overall bit rate mode: Variable
Overall bit rate: 1 664 Kbps
Writing application: MEncoder 1.0rc1-4.1.2
Writing library: MPlayer

Picture
ID: 0
Format: MPEG-4 Visual
Format profile: Advanced Simple @ L5
Format settings, BVOP: 2
Format settings, QPel: No
Format settings, GMC: No warppoints 0
Format settings, Matrix: Default (H.263)
Codec ID: XVID
Codec ID / Hint: XviD
Duration: 22 minutes
Bit rate: 1 582 Kbps
Width: 640 pixels
Height: 480 pixels
Aspect Ratio: 4:3
Frame rate: 30.303 fps
Color space: YUV
Chroma: 4:2:0
Resolution / String: 8 bits
Scan type: Progressive
Bits / (Pixel * Frame): 0,170
Stream size: 250 MiB (95%)
Writing library: XviD 1.1.0 (UTC 2005-11-22)

Sound
ID: 1
Format: MPEG Audio
Format version: Version 1
Format profile: Layer 3
Format_Settings_ModeExtension: Joint stereo
Format_Settings_ModeExtension: MS Stereo
Codec ID: 55
Codec ID / Hint: MP3
Duration: 22 minutes
Bit rate mode: Variable
Bit rate: 68.3 Kbps
Number of channels: 2 channels
Sampling rate: 48.0 KHz
Stream size: 10.8 MiB (4%)
Alignment:
Interleave, duration: 24 ms (0.73 video frame)
Interleave, preload duration: 446 ms
 






 












Desciption of Stick It
Category XXX movies
Genre       Hardcore       Teen      
Rating N/A
Size 1.40 GB
Show/Hide Files
6 files
AddDate 07/04/2013
Uploader xjock4ever23
Speed 0 KB/sec
Down 7 times
peers seeds: 4, leechers: 2 = 6 peers
Who thanks


No comments...