Torrent’s details
Name

[czechmegaswingers.com / czechav.com] CZECH MEGA SWINGERS 14 - PART 1,2,3,4,5

Torrent
Info Hash b035a53955edb6fdfc6ae491cb7c12da5dbb3449
Share with friends
Share |
Image 	[czechmegaswingers.com / czechav.com] CZECH MEGA SWINGERS 14 - PART 1,2,3,4,5
Screenshots
	[czechmegaswingers.com / czechav.com] CZECH MEGA SWINGERS 14 - PART 1,2,3,4,5 Image1 	[czechmegaswingers.com / czechav.com] CZECH MEGA SWINGERS 14 - PART 1,2,3,4,5 Image2 	[czechmegaswingers.com / czechav.com] CZECH MEGA SWINGERS 14 - PART 1,2,3,4,5 Image3 	[czechmegaswingers.com / czechav.com] CZECH MEGA SWINGERS 14 - PART 1,2,3,4,5 Image4
	[czechmegaswingers.com / czechav.com] CZECH MEGA SWINGERS 14 - PART 1,2,3,4,5 Image5
Embed code
embed code for [czechmegaswingers.com / czechav.com] CZECH MEGA SWINGERS 14 - PART 1,2,3,4,5
Description Подсайт и сайт: czechmegaswingers.com / czechav.com
Год производства: 2012 г.
Жанр: All Sex, Amateur, Blowjob, Facial, Orgy, POV
Количество роликов: 5

Описание: New episode of Czech Megaswingers is here, once again the best you can get. This wild party is full of young girls, we never had so many first-timers in here. And not only young girls, you will see mature women too and even a couple of drunk lesbians. This party has just everything you may need to be completely satisfied. In the first part you will see a young girl, cheating on her girlfriend with our cameraman. She offered to show him how she pees in the shower, in the end it turned into a threesome. You will also witness a massive group orgy, with six couples fucking in one room. The night was full of passion and now, you can be part of it too. Enjoy.

Формат видео: WMV
Видео кодек: Windows Media
Аудио кодек: WMA
Формат : Windows Media
Размер файла : 689 Мбайт
Продолжительность : 29 м.
Общий поток : 3228 Кбит/сек
Максимальный общий битрейт : 3128 Кбит/сек
Дата кодирования : UTC 1970-01-01 00:00:00.000
WM/EncodingSettings : Lavf53.6.0

Видео
Идентификатор : 1
Формат : WMV2
Идентификатор кодека : WMV2
Идентификатор кодека/Информация : Windows Media Video 8
Описание кодека : wmv2
Продолжительность : 29 м.
Битрейт : 2964 Кбит/сек
Ширина : 1280 пикселей
Высота : 720 пикселей
Соотношение сторон : 16:9
Частота кадров : 25,000 кадров/сек
Битовая глубина : 8 бит
Бит/(Пиксели*Кадры) : 0.129
Размер потока : 633 Мбайт (92%)

Аудио
Идентификатор : 2
Формат : WMA
Версия формата : Version 2
Идентификатор кодека : 161
Идентификатор кодека/Информация : Windows Media Audio
Описание кодека : Windows Media Audio V8
Продолжительность : 29 м.
Битрейт : 128 Кбит/сек
Каналы : 2 канала
Частота : 48,0 КГц
Битовая глубина : 16 бит
Размер потока : 27,3 Мбайт (4%)
Desciption of [czechmegaswingers.com / czechav.com] CZECH MEGA SWINGERS 14 - PART 1,2,3,4,5
Category XXX movies - HD
Genre       Amateur       Orgy (Group)      
Rating N/A
Size 3.31 GB
Show/Hide Files
5 files
AddDate 01/06/2012
Uploader armagedon
Speed 0 KB/sec
Down 3 times
peers seeds: 2, leechers: 1 = 3 peers
Who thanks


No comments...