Torrent’s details
Name

Lena Nitro Willkommen im Club German XXX DVDRip XviD-CHiKANi

Torrent
Info Hash b12f9fa2d88daa844557448ca9b19a6f39f7faeb
Share with friends
Share |
Image Lena Nitro Willkommen im Club German XXX DVDRip XviD-CHiKANi
Screenshots
Embed code
embed code for Lena Nitro Willkommen im Club German XXX DVDRip XviD-CHiKANi
Description General
Complete name                            : Dgrin.gifocuments and Settingsxjock4everMy Documentsdvd filmeLena.Nitro.Willkommen.im.Club.German.XXX.DVDRip.XviD-CHiKANichi-lnwic.avi
Format                                   : AVI
Format/Info                              : Audio Video Interleave
File size                                : 699 MiB
Duration                                 : 1h 27mn
Overall bit rate mode                    : Variable
Overall bit rate                         : 1 115 Kbps

Video
ID                                       : 0
Format                                   : MPEG-4 Visual
Format profile                           : Advanced Simple@L5
Format settings, BVOP                    : 2
Format settings, QPel                    : No
Format settings, GMC                     : No warppoints
Format settings, Matrix                  : Default (H.263)
Codec ID                                 : XVID
Codec ID/Hint                            : XviD
Duration                                 : 1h 27mn
Bit rate                                 : 985 Kbps
Width                                    : 608 pixels
Height                                   : 336 pixels
Display aspect ratio                     : 16:9
Frame rate                               : 25.000 fps
Color space                              : YUV
Chroma subsampling                       : 4:2:0
Bit depth                                : 8 bits
Scan type                                : Progressive
Compression mode                         : Lossy
Bits/(Pixel*Frame)                       : 0.193
Stream size                              : 617 MiB (88%)
Writing library                          : XviD 1.2.1 (UTC 2008-12-04)

Audio
ID                                       : 1
Format                                   : MPEG Audio
Format version                           : Version 1
Format profile                           : Layer 3
Mode                                     : Joint stereo
Mode extension                           : MS Stereo
Codec ID                                 : 55
Codec ID/Hint                            : MP3
Duration                                 : 1h 27mn
Bit rate mode                            : Variable
Bit rate                                 : 117 Kbps
Nominal bit rate                         : 128 Kbps
Channel(s)                               : 2 channels
Sampling rate                            : 48.0 KHz
Compression mode                         : Lossy
Stream size                              : 73.5 MiB (11%)
Alignment                                : Aligned on interleaves
Interleave, duration                     : 24 ms (0.60 video frame)
Interleave, preload duration             : 72 ms
Title                                    : VTS_02_1 T80 2_0ch 192Kbps DELAY 0ms
Writing library                          : LAME3.99r
Encoding settings                        : -m j -V 4 -q 2 -lowpass 17 --abr 128

Desciption of Lena Nitro Willkommen im Club German XXX DVDRip XviD-CHiKANi
Category XXX movies
Genre       Foreign      
Rating N/A
Size 698.97 MB
Show/Hide Files
1 file
AddDate 17/11/2012
Uploader xjock4ever23
Speed 0 KB/sec
Down 4 times
peers seeds: 6, leechers: 2 = 8 peers
Who thanks


No comments...