Torrent’s details
Name

BigMouthFuls - Jennifer Dark hd 720 2 july 2012

Torrent
Info Hash b831ee6e4b7ef3e6e697a7694781d1d1d6fbb228
Share with friends
Share |
Screenshots
Embed code
embed code for BigMouthFuls - Jennifer Dark hd 720 2 july 2012
Description



General
Complete name                            : D:bmf10406_3000.mp4
Format                                   : MPEG-4
Format profile                           : Base Media
Codec ID                                 : isom
File size                                : 629 MiB
Duration                                 : 28mn 46s
Overall bit rate mode                    : Variable
Overall bit rate                         : 3 054 Kbps
Encoded date                             : UTC 2012-06-23 00:10:29
Tagged date                              : UTC 2012-06-23 00:10:29
Writing application                      : Lavf53.32.100

Video
ID                                       : 1
Format                                   : AVC
Format/Info                              : Advanced Video Codec
Format profile                           : Main@L4.0
Format settings, CABAC                   : Yes
Format settings, ReFrames                : 6 frames
Codec ID                                 : avc1
Codec ID/Info                            : Advanced Video Coding
Duration                                 : 28mn 46s
Bit rate                                 : 3 000 Kbps
Width                                    : 1 280 pixels
Height                                   : 720 pixels
Display aspect ratio                     : 16:9
Frame rate mode                          : Constant
Frame rate                               : 29.970 fps
Color space                              : YUV
Chroma subsampling                       : 4:2:0
Bit depth                                : 8 bits
Scan type                                : Progressive
Bits/(Pixel*Frame)                       : 0.109
Stream size                              : 612 MiB (97%)
Writing library                          : x264 core 124 r2019+178 69a0443
Encoding settings                        : cabac=1 / ref=6 / deblock=1:0:0 / analyse=0x1:0x111 / me=hex / subme=6 / psy=0 / mixed_ref=1 / me_range=16 / chroma_me=1 / trellis=1 / 8x8dct=0 / cqm=0 / deadzone=21,11 / fast_pskip=0 / chroma_qp_offset=0 / threads=12 / sliced_threads=0 / nr=0 / decimate=1 / interlaced=0 / bluray_compat=0 / constrained_intra=0 / bframes=3 / b_pyramid=2 / b_adapt=1 / b_bias=0 / direct=1 / weightb=1 / open_gop=0 / weightp=2 / keyint=60 / keyint_min=25 / scenecut=40 / intra_refresh=0 / rc_lookahead=40 / rc=2pass / mbtree=0 / bitrate=3000 / ratetol=1.0 / qcomp=0.60 / qpmin=10 / qpmax=51 / qpstep=4 / cplxblur=20.0 / qblur=0.5 / vbv_maxrate=3000 / vbv_bufsize=6000 / nal_hrd=none / ip_ratio=1.40 / pb_ratio=1.30 / aq=1:1.00
Language                                 : English
Encoded date                             : UTC 2012-06-23 00:10:29
Tagged date                              : UTC 2012-06-23 00:10:29

Audio
ID                                       : 2
Format                                   : AAC
Format/Info                              : Advanced Audio Codec
Format profile                           : LC
Codec ID                                 : 40
Duration                                 : 28mn 46s
Bit rate mode                            : Variable
Bit rate                                 : 72.0 Kbps
Maximum bit rate                         : 96.0 Kbps
Channel(s)                               : 2 channels
Channel positions                        : Front: L R
Sampling rate                            : 44.1 KHz
Compression mode                         : Lossy
Delay relative to video                  : -200ms
Stream size                              : 14.7 MiB (2%)
Language                                 : English
Encoded date                             : UTC 2012-06-23 00:10:29
Tagged date                              : UTC 2012-06-23 00:10:29

SCREENER HERE :

http://2ab7cf00.galleries.bz

http://adf.ly/A9nCr

http://adf.ly/A9nKr

http://adf.ly/A9bxy
Desciption of BigMouthFuls - Jennifer Dark hd 720 2 july 2012
Category XXX movies - HD
Genre       Anal       Hardcore       Oral      
Rating N/A
Size 628.77 MB
Show/Hide Files
1 file
AddDate 28/06/2012
Uploader kameluss
Speed 0 KB/sec
Down 14 times
peers seeds: 0, leechers: 0 = 0 peers
Who thanks


No comments...