Torrent’s details
Name

Sugar Mommies 2

Torrent
Info Hash b99aaa270ab5c43320e7d99cf98d4d7b75498dd5
Share with friends
Share |
Image Sugar Mommies 2
Screenshots
Embed code
embed code for Sugar Mommies 2
Description


general
Complete name: C:  Users  Pista  Downloads  Sugar Mommies 2 - CD1.avi
Format: AVI
Format / Info: Audio Video Interleave
File Size: 695 MiB
Duration: 57 minutes
Overall bit rate mode: Variable
Overall bit rate: 1 700 Kbps
Writing application: Nandub v1.0rc2
Writing library: VirtualDubMod build 1852/release

picture
ID: 0
Format: MPEG-4 Visual
Format profile: Advanced Simple @ L5
Format settings, BVOP: 2
Format settings, QPel: No
Format settings, GMC: No warppoints 0
Format settings, Matrix: Default (H.263)
Muxing mode: Packed
Codec ID: XVID
Codec ID / Hint: XviD
Duration: 57 minutes
Bit rate: 1 592 Kbps
Width: 640 pixels
Height: 352 pixels
Aspect Ratio: 16:9
Frame rate: 29.970 fps
Color space: YUV
Chroma: 4:2:0
Resolution / String: 8 bits
Scan type: Progressive
Bits / (Pixel * Frame): 0.236
Stream size: 651 MiB (94%)
Writing library: XviD 1.0.3 (UTC 2004-12-20)

sound
ID: 1
Format: MPEG Audio
Format version: Version 1
Format profile: Layer 3
Format_Settings_ModeExtension: Joint stereo
Format_Settings_ModeExtension: MS Stereo
Codec ID: 55
Codec ID / Hint: MP3
Duration: 57 minutes
Bit rate mode: Variable
Bit rate: 93.5 Kbps
Number of channels: 2 channels
Sampling rate: 48.0 KHz
Stream size: 38.2 MiB (5%)
Alignment:
Interleave, duration: 24 ms (0.72 video frame)
Interleave, preload duration: 486 ms
 







 





Desciption of Sugar Mommies 2
Category XXX movies
Genre       Hardcore       Mature (Older)      
Rating N/A
Size 1.36 GB
Show/Hide Files
2 files
AddDate 06/04/2013
Uploader xjock4ever23
Speed 0 KB/sec
Down 6 times
peers seeds: 1, leechers: 2 = 3 peers
Who thanks


No comments...