Torrent’s details
Name

Lesbian Seductions 24 XXX DVDRip XviD-FLESHLiGHT

Torrent
Info Hash ba80dabae119bab5cf7496873a9ada5a7de4fd1b
Share with friends
Share |
Image Lesbian Seductions 24 XXX DVDRip XviD-FLESHLiGHT
Screenshots
Embed code
embed code for Lesbian Seductions 24 XXX DVDRip XviD-FLESHLiGHT
Description Video
Format                           : MPEG-4 Visual
Format profile                   : Simple@L3
Format settings, BVOP            : No
Format settings, QPel            : No
Format settings, GMC             : No warppoints
Format settings, Matrix          : Default
Codec ID                         : XVID
Codec ID/Hint                    : XviD
Duration                         : 1h 17mn
Bit rate                         : 1 149 Kbps
Width                            : 576 pixels
Height                           : 320 pixels
Display aspect ratio             : 16/9
Frame rate                       : 29.970 fps
Resolution                       : 24 bits
Colorimetry                      : 4:2:0
Scan type                        : Progressive
Bits/(Pixel*Frame)               : 0.208
Stream size                      : 634 MiB (91%)
Writing library                  : XviD 55

Audio
Format                           : MPEG Audio
Format version                   : Version 1
Format profile                   : Layer 3
Codec ID                         : 55
Codec ID/Hint                    : MP3
Duration                         : 1h 17mn
Bit rate mode                    : Variable
Bit rate                         : 104 Kbps
Minimum bit rate                 : 128 Kbps
Channel(s)                       : 2 channels
Sampling rate                    : 48.0 KHz
Resolution                       : 16 bits
Stream size                      : 57.6 MiB (8%)
Alignment                        : Aligned on interleaves
Interleave, duration             : 24 ms (0.72 video frame)
Interleave, preload duration     : 169 ms
Writing library                  : LAME3.98r
Encoding settings                : ABR

http://www.cduniverse.com/productinfo.asp?pid=7854820&style=ice

Desciption of Lesbian Seductions 24 XXX DVDRip XviD-FLESHLiGHT
Category XXX movies
Genre       Lesbian      
Rating
Size 699.41 MB
Show/Hide Files
1 file
AddDate 31/10/2012
Uploader xjock4ever23
Speed 0 KB/sec
Down 1 times
peers seeds: 8, leechers: 2 = 10 peers
Who thanks


No comments...