Torrent’s details
Name

Pure18 - Cammie Fox 2012

Torrent
Info Hash bb6e14f5471d3f7f174d5ad079f0f619fa9a93f4
Share with friends
Share |
Image Pure18 - Cammie Fox 2012
Screenshots
Embed code
embed code for Pure18 - Cammie Fox 2012
Description General
Complete name                            : D:so_kinky_big.mp4
Format                                   : MPEG-4
Format profile                           : Base Media / Version 2
Codec ID                                 : mp42
File size                                : 344 MiB
Duration                                 : 31mn 14s
Overall bit rate mode                    : Variable
Overall bit rate                         : 1 540 Kbps
Encoded date                             : UTC 2012-07-13 03:47:02
Tagged date                              : UTC 2012-07-13 03:47:02
Writing library                          : Apple QuickTime

Video
ID                                       : 1
Format                                   : AVC
Format/Info                              : Advanced Video Codec
Format profile                           : Main@L3.0
Format settings, CABAC                   : No
Format settings, ReFrames                : 6 frames
Codec ID                                 : avc1
Codec ID/Info                            : Advanced Video Coding
Duration                                 : 31mn 14s
Source duration                          : 31mn 14s
Bit rate mode                            : Variable
Bit rate                                 : 1 438 Kbps
Maximum bit rate                         : 1 500 Kbps
Width                                    : 768 pixels
Height                                   : 432 pixels
Display aspect ratio                     : 16:9
Frame rate mode                          : Constant
Frame rate                               : 29.970 fps
Standard                                 : Component
Color space                              : YUV
Chroma subsampling                       : 4:2:0
Bit depth                                : 8 bits
Scan type                                : Progressive
Bits/(Pixel*Frame)                       : 0.145
Stream size                              : 321 MiB (93%)
Source stream size                       : 336 MiB (98%)
Encoded date                             : UTC 2012-07-13 03:47:02
Tagged date                              : UTC 2012-07-12 03:47:52

Audio
ID                                       : 2
Format                                   : AAC
Format/Info                              : Advanced Audio Codec
Format profile                           : LC
Codec ID                                 : 40
Duration                                 : 31mn 14s
Bit rate mode                            : Variable
Bit rate                                 : 32.0 Kbps
Maximum bit rate                         : 34.9 Kbps
Channel(s)                               : 1 channel
Channel positions                        : Front: C
Sampling rate                            : 32.0 KHz
Compression mode                         : Lossy
Stream size                              : 7.15 MiB (2%)
Encoded date                             : UTC 2012-07-13 03:47:02
Tagged date                              : UTC 2012-07-12 03:47:52



Desciption of Pure18 - Cammie Fox 2012
Category XXX movies - DVD
Genre       Hardcore      
Rating N/A
Size 344.14 MB
Show/Hide Files
1 file
AddDate 14/07/2012
Uploader kameluss
Speed 0 KB/sec
Down 2 times
peers seeds: 0, leechers: 0 = 0 peers
Who thanks


No comments...