Torrent’s details
Name

ZFX Dantist ( ретро бдсм ) (2005) CamRip

Torrent
Info Hash be050b2f818bbda1560d521558647ad59646b644
Share with friends
Share |
Image ZFX Dantist ( ретро бдсм ) (2005) CamRip
Screenshots
ZFX Dantist ( ретро бдсм ) (2005) CamRip Image1
Embed code
embed code for ZFX Dantist ( ретро бдсм ) (2005) CamRip
Description Год выхода: 2005
Раздел: BDSM
Время: 82 мин
Описание:

( беременным детям до 16 лет с неуравновешенной психикой в пяном виде за рулём крутящыхся механизмов не смотреть


тех данные


General
Complete name : E:ogZfxThe Dentist.rm
Format : RealMedia
File size : 144 MiB
Duration : 1h 21mn
Overall bit rate : 235 Kbps
Performer : ZFX Productions Inc.
Copyright : Copyright 1991-2004 ZFX Productions All Rights Reserved

Video
ID : 1
Format : RealVideo 4
Codec ID : RV40
Codec ID/Info : Based on AVC (H.264), Real Player 9
Duration : 1h 21mn
Bit rate : 219 Kbps
Width : 320 pixels
Height : 240 pixels
Display aspect ratio : 4:3
Frame rate : 24.000 fps
Resolution : 12 bits
Bits/(Pixel*Frame) : 0.119
Stream size : 127 MiB (89%)

Audio
ID : 0
Format : Cooker
Codec ID : cook
Codec ID/Info : Based on G.722.1, Real Player 6
Duration : 1h 21mn
Bit rate : 16.2 Kbps
Channel(s) : 1 channel
Sampling rate : 22.05 KHz
Resolution : 16 bits
Stream size : 9.44 MiB (7%)

Качество: CamRip
Формат: Other
Размер: 144.07 Мб
Desciption of ZFX Dantist ( ретро бдсм ) (2005) CamRip
Category XXX clips
Genre       BDSM      
Rating N/A
Size 144.07 MB
Show/Hide Files
1 file
AddDate 19/04/2011
Uploader s6ekspir
Speed 0 KB/sec
Down 13 times
peers seeds: 9, leechers: 2 = 11 peers
Who thanks


No comments...